вход на сайт

Имя пользователя :
Пароль :

Восстановление пароля Регистрация
Мифы Амазонки / Mythos Amazonas // Сезон 1, выпуски 1-3 (из 3) (документальный, 2010) [BDRip-AVC, Авторский (одноголосый закадровый) Ю.Сербин + Оригинал]
Рейтинг:
(голосов: 1)



[img]{THEME}/images/logopost.png[/img]



Мифы Амазонки / Mythos Amazonas

Страна: Германия
Производство: Österreichischer Rundfunk (ORF)
Год выпуска: 2010
Жанр: документальный

Режиссер: Кристиан Баумейстер

Описание: Все три части фильма переносят зрителя в крупней тропический лес на земле. Первые европейцы ощущали страх от него. Для них Амазонка стала "Зеленым адом", зловещим местом, полным опасных животных и ядовитых растений.
Сегодня мы знаем как богат этот лес. Он играет важную роль в глобальном климате. Съемочная группа находилась 3 года в Амазонке. На площади, около 20 раз больше площади Германии, они преодолели тысячи киллометров пешком, на лодках и самолетах. В некоторых регионах они сильно рисковали, поднявшись на вершины гигантских деревьев. Они потратили много сил, чтобы снять медленные движения, стабилизировать аэрофотосъемки, подводные снимки...

Качество: BDRip-AVC
Продолжительность: 00:44:25 + 00:44:31 + 00:44:28

Формат: MKV

Эпизод 1: Зеленый ад или рай? ▼
Перевод: Авторский (одноголосый закадровый) Ю.Сербин + Оригинальная звуковая дорожка

Видео кодек: x264
Аудио кодек: AС3
Свойства видео: 1024x576 (1.78:1), 23.976 fps, MPEG-4 AVC, ~3520 kbps, 0.249 bit/pixel
Свойства аудио #1: 48 kHz, AC3, 3/2 (L,C,R,l,r), ~448.00 kbps avg (RUS)
Свойства аудио #2: 48 kHz, AC3, 3/2 (L,C,R,l,r), ~448.00 kbps avg (GER)

MediaInfo ▼Формат : Matroska
Версия формата : Version 2
Размер файла : 1,46 Гбайт
Продолжительность : 46 м.
Общий поток : 4505 Кбит/сек
Дата кодирования : UTC 2011-09-22 09:45:19
Программа кодирования : mkvmerge v4.9.1 (Ich will) сборка от Jul 11 2011 23:53:15
Библиотека кодирования : libebml v1.2.1 + libmatroska v1.1.1

Видео
Идентификатор : 1
Формат : AVC
Формат/Информация : Advanced Video Codec
Профиль формата : [email protected]
Параметр CABAC формата : Да
Параметр ReFrames формата : 5 кадров
Идентификатор кодека : V_MPEG4/ISO/AVC
Продолжительность : 46 м.
Битрейт : 3520 Кбит/сек
Номинальный битрейт : 3800 Кбит/сек
Ширина : 1024 пикселя
Высота : 576 пикселей
Соотношение сторон : 16:9
Частота кадров : 23,976 кадра/сек
Частота кадров в оригинале : 25,000 кадров/сек
Цветовое пространство : YUV
Субдискретизация насыщенности : 4:2:0
Битовая глубина : 8 бит
Тип развёртки : Прогрессивная
Бит/(Пиксели*Кадры) : 0.249
Размер потока : 1,14 Гбайт (78%)
Библиотека кодирования : x264 core 115 r1995 c1e60b9
Настройки программы : cabac=1 / ref=5 / deblock=1:-3:-3 / analyse=0x3:0x113 / me=umh / subme=10 / psy=1 / psy_rd=1.00:0.00 / mixed_ref=1 / me_range=32 / chroma_me=1 / trellis=2 / 8x8dct=1 / cqm=0 / deadzone=21,11 / fast_pskip=0 / chroma_qp_offset=-2 / threads=3 / sliced_threads=0 / nr=0 / decimate=1 / interlaced=0 / bluray_compat=0 / constrained_intra=0 / bframes=8 / b_pyramid=2 / b_adapt=2 / b_bias=0 / direct=3 / weightb=1 / open_gop=0 / weightp=2 / keyint=250 / keyint_min=25 / scenecut=40 / intra_refresh=0 / rc_lookahead=40 / rc=2pass / mbtree=0 / bitrate=3800 / ratetol=1.0 / qcomp=0.60 / qpmin=0 / qpmax=69 / qpstep=4 / cplxblur=20.0 / qblur=0.5 / vbv_maxrate=50000 / vbv_bufsize=62500 / nal_hrd=none / ip_ratio=1.40 / pb_ratio=1.30 / aq=1:0.80
Язык : English

Аудио #1
Идентификатор : 2
Формат : AC-3
Формат/Информация : Audio Coding 3
Расширение режима : CM (complete main)
Идентификатор кодека : A_AC3
Продолжительность : 46 м.
Вид битрейта : Постоянный
Битрейт : 448 Кбит/сек
Каналы : 6 каналов
Расположение каналов : Front: L C R, Side: L R, LFE
Частота : 48,0 КГц
Битовая глубина : 16 бит
Метод сжатия : С потерями
Размер потока : 148 Мбайт (10%)
Заголовок : Ю.Сербин
Язык : Russian

Аудио #2
Идентификатор : 3
Формат : AC-3
Формат/Информация : Audio Coding 3
Расширение режима : CM (complete main)
Идентификатор кодека : A_AC3
Продолжительность : 46 м.
Вид битрейта : Постоянный
Битрейт : 448 Кбит/сек
Каналы : 6 каналов
Расположение каналов : Front: L C R, Side: L R, LFE
Частота : 48,0 КГц
Битовая глубина : 16 бит
Метод сжатия : С потерями
Размер потока : 148 Мбайт (10%)
Заголовок : Оригинал
Язык : German
2249edbf377005da59dcc9f4f7f7cc6a239fd686Мифы Амазонки / Mythos Amazonas // Сезон 1, выпуски 1-3 (из 3) (документальный, 2010) [BDRip-AVC, Авторский (одноголосый закадровый) Ю.Сербин + Оригинал] Мифы Амазонки / Mythos Amazonas // Сезон 1, выпуски 1-3 (из 3) (документальный, 2010) [BDRip-AVC, Авторский (одноголосый закадровый) Ю.Сербин + Оригинал] " />

Аплоадер: Админ, дата: 24-09-2011, 22:42, торрент скачан: 359 раз

Понравилась раздача? Посмотрите эти:
  • Ночь страха 2: Свежая кровь / Fright Night 2: New Blood (Эдуардо Родригез, ...
  • Ночь страха 2: Свежая кровь / Fright Night 2: New Blood (Эдуардо Родригез, ...
  • Тело / El cuerpo (Ориол Паоло, триллер, 2012) [BDRip-AVC, Авторский (одного ...
  • Ад каннибалов / Cannibal Holocaust (Руджеро Деодато, ужасы, приключения, 19 ...
  • [NG] Комета века / Comet of the century (документальный, 2013) [HDTVRip-AVC ...
  • Пипец / Kick-Ass (Мэттью Вон, боевик, триллер, комедия, криминал, 2010) [BD ...
  • Мальчишник: Часть III / The Hangover Part III (Тодд Филлипс, комедия, 2013) ...
  • Иллюзия обмана / Now You See Me [Extended Cut] (Луи Летерье, триллер, крими ...
  • Башня / The Tower (Чи-хун Ким, драма, 2012) [BDRip-AVC, Любительский (двухг ...
  • Больше чем мёд / More Than Honey (документальный, 2012) [BDRip 720p, Профес ...
  • Снайпер / The Sniper (Луис Ллоса, Боевик,триллер,драма, 1992) [HDTVRip-AVC, ...
  • Узник / One in the Chamber (Уильям Кауфман, боевик, триллер, криминал, 2012 ...
  • [NG] Война львов / Lion Battle Zone (документальный, 2011) [HDTVRip-AVC, Пр ...
  • Услышь меня / Ting shuo (Феньфень Чэн, Драма, 2009) [BDRip-AVC, Авторский ( ...
  • Убийцы / Yi ngoi (Поу-Сои Чинг, Триллер, 2009) [BDRip-AVC, Авторский (одног ...
  • АББА: фильм / ABBA: The Movie (документальный, драма, музыка, 1977) [BDRip- ...
  • Суррогат / The Sessions (Бен Луин, Драма, 2012) [BDRip-AVC, Профессиональны ...
  • Изо всех сил / Over the Top (Менахем Голан, Боевик, 1987) [BDRip-AVC, Профе ...
  • 11:14 (Одиннадцать четырнадцать) / 11:14 (Elevenfourteen) (Грег Маркс, трил ...
  • Образец 47 / Marvel One-Shot: Item 47 (Луис Д’Эспозито, короткометражка, фа ...
  • Эд Вуд / Ed Wood (Тим Бёртон, драма, комедия, биография, 1994) [BDRip-AVC, ...
  • Резня /Carnage (Роман Полански, драма, комедия, 2011) [BDRip 1080p, Дублиро ...
  • Павшая империя / Hirokin (Алехо Мо-Сан, фантастика, боевик, драма, приключе ...
  • [NG] Гитлеровские лагеря смерти / Hitlers G.I. Death Camp (документальный, ...
  • Преследование / Слежка / Following (Кристофер Нолан, триллер, драма, кримин ...
  • Информация
    Посетители, находящиеся в группе Гости, не могут оставлять комментарии к данной публикации.