вход на сайт

Имя пользователя :
Пароль :

Восстановление пароля Регистрация
Дикая Южная Африка. По Следам Белых Акул / Wildlife South Africa: Western Cape (Документальный, 2012) [BDRip-AVC, Пррфессиональный (одноголосый, закадровый)]
Рейтинг:
(голосов: 1)



[img]{THEME}/images/logopost.png[/img]



Дикая Южная Африка. По Следам Белых Акул / Wildlife South Africa: Western Cape


Страна: Германия
Производство: New KSM
Год выпуска: 2012
Жанр: Документальный
Режиссёр: Норберт Вандер
Ведущие: отсутствует
Участники: Животный Мир...

Перевод: Пррфессиональный (одноголосый, закадровый)

Описание
Протяжённость Южно-Африканского побережья 2786 км. С запада оно омывается Атлантическим океаном, с востока - Индийским. В середине находится мыс Доброй Надежды - кладбище кораблей. В этом "повинны" два течения - со стороны Атлантики холодное Benguela, а с Индийского океана - тёплое Agulahasstrom. Эти условия создали неповторимую флору и фауну. В этом фильме показана природа Западного мыса (недалеко от мыса Доброй Надежды). Мы увидим китов, морских львов, пингвинов, подразним и заглянем в рот белой акулы. А также мы встретимся с большой белой акулой в районе острова Дайер, известном под названием Акулья аллея.


Тех.Данные
Качество: BDRip-AVC
Продолжительность: 00:47:18 часа

Формат: Matroska-MKV-
Видео кодек: AVC [email protected]
Аудио кодек: Audio Coding 3
Свойства видео: 1024x576 (16:9), 23,976 fps, AVC ~1750 kbps avg, 0.124 bit/pixel
Свойства аудио: 48 kHz, AC3 Dolby Digital, 3/2 (L,C,R,l,r) + L,F,E ch, ~224 kbps

Информация MediaInfo ▼TextОбщее
Уникальный идентификатор : 195461303265330901365439421763296477151 (0x930C7A4A12B5860090E7D723A090BFDF)
Полное имя : E:DownloadsДикая Южная Африка. По Следам Белых Акул.2012.BDRip-AVC.mkv
Формат : Matroska
Версия формата : Version 2
Размер файла : 668 Мбайт
Продолжительность : 47 м.
Общий поток : 1974 Кбит/сек
Дата кодирования : UTC 2013-08-10 14:09:49
Программа кодирования : mkvmerge v5.8.0 (No Sleep / Pillow) built on Sep 2 2012 15:37:04
Библиотека кодирования : libebml v1.2.3 + libmatroska v1.3.0

Видео
Идентификатор : 1
Формат : AVC
Формат/Информация : Advanced Video Codec
Профиль формата : [email protected]
Параметр CABAC формата : Да
Параметр ReFrames формата : 5 кадров
Идентификатор кодека : V_MPEG4/ISO/AVC
Продолжительность : 47 м.
Битрейт : 1750 Кбит/сек
Ширина : 1024 пикселя
Высота : 576 пикселей
Соотношение сторон : 16:9
Частота кадров : 23,976 кадра/сек
Цветовое пространство : YUV
Субдискретизация насыщенности : 4:2:0
Битовая глубина : 8 бит
Тип развёртки : Прогрессивная
Бит/(Пиксели*Кадры) : 0.124
Размер потока : 579 Мбайт (87%)
Библиотека кодирования : x264 core 125 r2208 d9d2288
Настройки программы : cabac=1 / ref=5 / deblock=1:-2:-2 / analyse=0x3:0x111 / me=umh / subme=9 / psy=1 / psy_rd=1.00:0.15 / mixed_ref=1 / me_range=32 / chroma_me=1 / trellis=2 / 8x8dct=1 / cqm=0 / deadzone=21,11 / fast_pskip=0 / chroma_qp_offset=-3 / threads=12 / lookahead_threads=2 / sliced_threads=0 / nr=0 / decimate=1 / interlaced=0 / bluray_compat=0 / constrained_intra=0 / bframes=5 / b_pyramid=2 / b_adapt=0 / b_bias=0 / direct=1 / weightb=1 / open_gop=0 / weightp=2 / keyint=250 / keyint_min=23 / scenecut=40 / intra_refresh=0 / rc_lookahead=50 / rc=2pass / mbtree=1 / bitrate=1750 / ratetol=1.0 / qcomp=0.60 / qpmin=0 / qpmax=69 / qpstep=4 / cplxblur=20.0 / qblur=0.5 / ip_ratio=1.40 / aq=1:1.00
Default : Да
Forced : Нет

Аудио
Идентификатор : 2
Формат : AC-3
Формат/Информация : Audio Coding 3
Расширение режима : CM (complete main)
Идентификатор кодека : A_AC3
Продолжительность : 47 м.
Вид битрейта : Постоянный
Битрейт : 224 Кбит/сек
Каналы : 6 каналов
Расположение каналов : Front: L C R, Side: L R, LFE
Частота : 48,0 КГц
Битовая глубина : 16 бит
Метод сжатия : С потерями
Размер потока : 75,8 Мбайт (11%)
Default : Да
Forced : Нет

Доп.Скриншоты ▼

80f813cd2b668266d39e9ec0dceaa97bd2ac3494Дикая Южная Африка. По Следам Белых Акул / Wildlife South Africa: Western Cape (Документальный, 2012) [BDRip-AVC, Пррфессиональный (одноголосый, закадровый)] Дикая Южная Африка. По Следам Белых Акул / Wildlife South Africa: Western Cape (Документальный, 2012) [BDRip-AVC, Пррфессиональный (одноголосый, закадровый)] " />

Аплоадер: Админ, дата: 11-08-2013, 11:12, торрент скачан: 359 раз

Понравилась раздача? Посмотрите эти:
  • [NG] Комета века / Comet of the century (документальный, 2013) [HDTVRip-AVC ...
  • [NG] Тайная жизнь хищников / Secret Life of Predators // Эпизод 1 по 4 (из ...
  • [BBC] Как устроена природа / BBC. How Nature Works // Эпизод 1 по 4 (из 4) ...
  • Башня / The Tower (Чи-хун Ким, драма, 2012) [BDRip-AVC, Любительский (двухг ...
  • Больше чем мёд / More Than Honey (документальный, 2012) [BDRip 720p, Профес ...
  • Обман Обамы / The Obama Deception: The Mask Comes Off (Документальный, 2009 ...
  • Гараж (Эльдар Рязанов, драма, комедия, 1979) [DVDRip-AVC, Оригинал (русский ...
  • Голливудский мусор / Garbage (Филипп Волкен, драма, комедия, 2013) [HDTVRip ...
  • [BBC] BBC: Безжалостные убийцы / BBC: Ultimate Killers // Выпуск 1 по 3 (из ...
  • Рикошет / Ricochet (Ник Гомез, драма, детектив, 2011) [BDRip-AVC, Профессио ...
  • [BBC] BBC: Змеи / Wildlife Special. Serpent (Документальный, 2003) [DVDRip- ...
  • [NG] На крючке: Ловля монстров. Гигантский скат / Monster Fish. Giant Sting ...
  • [BBC] Африка / Africa // Сезон 1, Серия 1 по 5 (из 6) (документальный, 2013 ...
  • [NG] Война львов / Lion Battle Zone (документальный, 2011) [HDTVRip-AVC, Пр ...
  • Новые технологии войны / The New Technology of War [Часть 1] (документальны ...
  • Новые технологии войны / The New Technology of War [Часть 2] (документальны ...
  • Дикий запад. Кино и реальность / The Wild And The West (документальный, 200 ...
  • Огонь Кристиана Лубутена 3D / FEU: Crazy Horse Paris (Бруно Халлин, Докумен ...
  • Толстяк на ринге / Here Comes the Boom (Фрэнк Корачи, Боевик, комедия, 2012 ...
  • Суррогат / The Sessions (Бен Луин, Драма, 2012) [BDRip-AVC, Профессиональны ...
  • Чемпионат Англии 2012-2013 / 25-й тур / Обзор / Суббота / BBC Sport [2013 г ...
  • Образец 47 / Marvel One-Shot: Item 47 (Луис Д’Эспозито, короткометражка, фа ...
  • Скрат: Потерянный орех / Scrat: Gone Nutty (Карлос Салдана, короткометражка ...
  • Лоракс: Серенада / The Lorax: Serenade (Кайл Балда, мультфильм, комедия, му ...
  • Чемпионат Мира 2014 | Отборочный турнир | Европа | World Cup Qualifiers - H ...
  • Информация
    Посетители, находящиеся в группе Гости, не могут оставлять комментарии к данной публикации.