вход на сайт

Имя пользователя :
Пароль :

Восстановление пароля Регистрация
Виртуальное путешествие: Прекрасная планета / Virtual Trip: The Beautiful Planet (документальный, видовой, 2010) [BDRip-AVC, не требуется]
Рейтинг:
(голосов: 1)



[img]{THEME}/images/logopost.png[/img]



Виртуальное путешествие: Прекрасная планета / Virtual Trip: The Beautiful Planet


Страна: Япония
Производство: N / A
Год выпуска: 2010
Жанр: документальный, видовой
Режиссёр: Хироюки Накано
Ведущие: отсутствует
Участники: Живой Мир, природа

Перевод: не требуется

Описание
Солнечная система, великолепная планета Земля. Тщательно отобранные виды самых красивых уголков планеты из более, чем 50 часов отснятого материала. Несколько лет работы Хироюки Накано - признанного мастера видового кино. Это видео служит выражением его благодарности и почтительности к нашей планете. Оцените сами превосходное сочетание природы и музыки, которая "исцеляет".
Гладь воды, облака и горы, взлёты и падения. Острова: Гавайи, Оаху, Кауаи, Мауи, Таити, Муреа, Huahine, Raiateia, Бора-Бора и Маркизские - кажется, что они парят в воздухе, они плавают в воде, как драгоценные камни в южной части Тихого океана. Горы Мауна-Кеа на Гавайях, на высоте 3000 метров. Горы, хранящие молчание. Как-будто ничего не происходит, нет даже ветра, мир чувств, только солнце, дающее жизненные силы. Облака и солнце в гармонии, которой вы никогда раньше не видели. Плавающие дельфины и манты помогут Вам перенестись в мир визуальной поэзии...


Тех.Данные
Качество: BDRip-AVC
Продолжительность: 00:58:01 часа

Формат: Matroska-MKV-
Видео кодек: AVC [email protected]
Аудио кодек: Audio Coding 3
Свойства видео: 1024x576 (16:9), 23,976 fps, AVC [email protected] ~1750 kbps avg, 0.124 bit/pixel
Свойства аудио: 48.00 kHz, AC3 Dolby Digital, 2/0 (L,R) ch, ~448.00 kbps avg

Информация MediaInfo ▼TextОбщее
Уникальный идентификатор : 182546423698219207546151809631223440127 (0x89552990B1E97DDD9137D855383662FF)
Полное имя : E:DownloadsВиртуальное путешествие. Прекрасная планета.2010.BDRip-AVC.mkv
Формат : Matroska
Версия формата : Version 2
Размер файла : 912 Мбайт
Продолжительность : 58 м.
Общий поток : 2198 Кбит/сек
Дата кодирования : UTC 2013-06-09 04:50:38
Программа кодирования : mkvmerge v6.1.0 (Old Devil) built on Mar 4 2013 09:10:42
Библиотека кодирования : libebml v1.3.0 + libmatroska v1.4.0

Видео
Идентификатор : 1
Формат : AVC
Формат/Информация : Advanced Video Codec
Профиль формата : [email protected]
Параметр CABAC формата : Да
Параметр ReFrames формата : 5 кадров
Идентификатор кодека : V_MPEG4/ISO/AVC
Продолжительность : 58 м.
Битрейт : 1750 Кбит/сек
Ширина : 1024 пикселя
Высота : 576 пикселей
Соотношение сторон : 16:9
Частота кадров : 23,976 кадра/сек
Цветовое пространство : YUV
Субдискретизация насыщенности : 4:2:0
Битовая глубина : 8 бит
Тип развёртки : Прогрессивная
Бит/(Пиксели*Кадры) : 0.124
Размер потока : 708 Мбайт (78%)
Библиотека кодирования : x264 core 130 r2273 b3065e6
Настройки программы : cabac=1 / ref=5 / deblock=1:-2:-2 / analyse=0x3:0x111 / me=umh / subme=9 / psy=1 / psy_rd=0.00:0.10 / mixed_ref=1 / me_range=32 / chroma_me=1 / trellis=2 / 8x8dct=1 / cqm=0 / deadzone=21,11 / fast_pskip=0 / chroma_qp_offset=-1 / threads=4 / lookahead_threads=1 / sliced_threads=0 / nr=0 / decimate=1 / interlaced=0 / bluray_compat=0 / constrained_intra=0 / bframes=5 / b_pyramid=2 / b_adapt=0 / b_bias=0 / direct=1 / weightb=1 / open_gop=0 / weightp=2 / keyint=250 / keyint_min=23 / scenecut=40 / intra_refresh=0 / rc_lookahead=50 / rc=2pass / mbtree=1 / bitrate=1750 / ratetol=1.0 / qcomp=0.60 / qpmin=0 / qpmax=69 / qpstep=4 / cplxblur=20.0 / qblur=0.5 / ip_ratio=1.40 / aq=1:1.00
Default : Да
Forced : Нет

Аудио
Идентификатор : 2
Формат : AC-3
Формат/Информация : Audio Coding 3
Расширение режима : CM (complete main)
Идентификатор кодека : A_AC3
Продолжительность : 58 м.
Вид битрейта : Постоянный
Битрейт : 448 Кбит/сек
Каналы : 2 канала
Расположение каналов : Front: L R
Частота : 48,0 КГц
Битовая глубина : 16 бит
Метод сжатия : С потерями
Размер потока : 186 Мбайт (20%)
Заголовок : Music
Язык : Japanese
Default : Да
Forced : Нет




714260a976cbd2fa545a1f45fa526132b6aed580Виртуальное путешествие: Прекрасная планета / Virtual Trip: The Beautiful Planet (документальный, видовой, 2010) [BDRip-AVC, не требуется] Виртуальное путешествие: Прекрасная планета / Virtual Trip: The Beautiful Planet (документальный, видовой, 2010) [BDRip-AVC, не требуется] " />

Аплоадер: Админ, дата: 10-06-2013, 14:26, торрент скачан: 359 раз

Понравилась раздача? Посмотрите эти:
  • Подглядывающий на кухне / Kick the Cock (Тинто Брасс, Эротика, короткометра ...
  • [NG] Комета века / Comet of the century (документальный, 2013) [HDTVRip-AVC ...
  • 11.6 / 11.6 (Филипп Годо, Драма, триллер, криминал, 2013) [BDRip-AVC, Профе ...
  • Филадельфия / Philadelphia (Джонатан Демме, Драма, 1993) [BDRip-AVC, Профес ...
  • Башня / The Tower (Чи-хун Ким, драма, 2012) [BDRip-AVC, Любительский (двухг ...
  • Обман Обамы / The Obama Deception: The Mask Comes Off (Документальный, 2009 ...
  • Гараж (Эльдар Рязанов, драма, комедия, 1979) [DVDRip-AVC, Оригинал (русский ...
  • [BBC] BBC: Безжалостные убийцы / BBC: Ultimate Killers // Выпуск 1 по 3 (из ...
  • Рикошет / Ricochet (Ник Гомез, драма, детектив, 2011) [BDRip-AVC, Профессио ...
  • [BBC] BBC: Змеи / Wildlife Special. Serpent (Документальный, 2003) [DVDRip- ...
  • Дикая Южная Африка. По Следам Белых Акул / Wildlife South Africa: Western C ...
  • [NG] На крючке: Ловля монстров. Гигантский скат / Monster Fish. Giant Sting ...
  • [NG] Война львов / Lion Battle Zone (документальный, 2011) [HDTVRip-AVC, Пр ...
  • Новые технологии войны / The New Technology of War [Часть 1] (документальны ...
  • Новые технологии войны / The New Technology of War [Часть 2] (документальны ...
  • Даю год / I Give It a Year (Дэн Мазер, мелодрама, комедия, 2012) [BDRip-AVC ...
  • Дикий запад. Кино и реальность / The Wild And The West (документальный, 200 ...
  • Огонь Кристиана Лубутена 3D / FEU: Crazy Horse Paris (Бруно Халлин, Докумен ...
  • Толстяк на ринге / Here Comes the Boom (Фрэнк Корачи, Боевик, комедия, 2012 ...
  • Суррогат / The Sessions (Бен Луин, Драма, 2012) [BDRip-AVC, Профессиональны ...
  • Чемпионат Англии 2012-2013 / 25-й тур / Обзор / Суббота / BBC Sport [2013 г ...
  • Образец 47 / Marvel One-Shot: Item 47 (Луис Д’Эспозито, короткометражка, фа ...
  • Скрат: Потерянный орех / Scrat: Gone Nutty (Карлос Салдана, короткометражка ...
  • Лоракс: Серенада / The Lorax: Serenade (Кайл Балда, мультфильм, комедия, му ...
  • Виртуальное путешествие - Прекрасная планета / Virtual Trip - The Beautiful ...
  • Информация
    Посетители, находящиеся в группе Гости, не могут оставлять комментарии к данной публикации.