вход на сайт

Имя пользователя :
Пароль :

Восстановление пароля Регистрация
Астероиды: хорошие, плохие, злые / Asteroids: The Good, the Bad and the Ugly (Документальный, научно-познавательный, космос, 2010) [HDTVRip, Профессиональный (двухголосый, Закадровый)]
Рейтинг:
(голосов: 1)



[img]{THEME}/images/logopost.png[/img]



Астероиды: хорошие, плохие, злые / Asteroids: The Good, the Bad and the Ugly

Страна: Великобритания
Производство: BBC, Science Channel Co-production
Год выпуска: 2010
Жанр: Документальный, научно-познавательный, космос, астрономия

Режиссёр: Дэн Кендэлл
Ведущие: Неизвестны
Участники: Учёные, эксперты
Перевод: Профессиональный (двухголосый, Закадровый)

Описание: Веками ученые почти не проявляли интереса к астероидам. Но в последние годы был сделан целый ряд научных открытий, в которых астероиды предстают в новом свете. Известные своей способностью нанести Армагеддон из космоса, астероиды теперь выявляют секреты того, как они несут ответственность за жизни и смерти на нашей планете. Вооруженные набором мощных телескопов, ученые находят до 3000 новых астероидов каждую ночь. О некоторых из них мы расскажем. Но астрономы обнаружили, что это не гигантские породы, самая большая опасность - это небольшие астероиды, которые представляют собой более непосредственную угрозу для Земли.

Качество: HDTVRip
Продолжительность: 00:51:42 час
"Media Info" ▼TextC:UsersÍóðáåêDownloadsAsteroidy.horoshie.plohie.zlye.2010.XviD.HDTVRip.avi
General
Complete name : C:UsersÍóðáåêDownloadsAsteroidy.horoshie.plohie.zlye.2010.XviD.HDTVRip.avi
Format : AVI
Format/Info : Audio Video Interleave
File size : 652 MiB
Duration : 51mn 41s
Overall bit rate : 1 765 Kbps
Video #0
ID : 0
Format : MPEG-4 Visual
Format profile : [email protected]
Format settings, BVOP : No
Format settings, QPel : No
Format settings, GMC : No warppoints
Format settings, Matrix : Default (H.263)
Codec ID : XVID
Codec ID/Hint : XviD
Duration : 51mn 41s
Bit rate : 1 562 Kbps
Width : 720 pixels
Height : 400 pixels
Display aspect ratio : 16:9
Frame rate : 25.000 fps
Resolution : 8 bits
Colorimetry : 4:2:0
Scan type : Progressive
Bits/(Pixel*Frame) : 0.217
Stream size : 577 MiB (89%)
Writing library : XviD 1.1.2 (UTC 2006-11-01)
Audio #1
ID : 1
Format : AC-3
Format/Info : Audio Coding 3
Format_Settings_ModeExtension : CM (complete main)
Codec ID : 2000
Duration : 51mn 40s
Bit rate mode : Constant
Bit rate : 192 Kbps
Channel(s) : 2 channels
Channel positions : Front: L R
Sampling rate : 48.0 KHz
Stream size : 71.0 MiB (11%)
Alignment : Aligned on interleaves
Interleave, duration : 32 ms (0.80 video frame)
Формат: AVI
Видео кодек: XviD
Аудио кодек: AC3
Свойства видео: 720x400, (16:9), XviD, 25.000 fps, 1 562 Kbps, 0.217 bits/pixel
Свойства аудио: 48.0 KHz, AC3, 2 channels, 192 Kbps

Наши рипы / Набор в РГ / Стол заказов РГ / Стол заказов по РИПам



9c18c18a1b4b29d7f33f26790d2d0e1039b165a6Астероиды: хорошие, плохие, злые / Asteroids: The Good, the Bad and the Ugly (Документальный, научно-познавательный, космос, 2010) [HDTVRip, Профессиональный (двухголосый, Закадровый)] Астероиды: хорошие, плохие, злые / Asteroids: The Good, the Bad and the Ugly (Документальный, научно-познавательный, космос, 2010) [HDTVRip, Профессиональный (двухголосый, Закадровый)] " />

Аплоадер: Админ, дата: 27-07-2012, 02:03, торрент скачан: 359 раз

Понравилась раздача? Посмотрите эти:
  • Вирус / Flu (Ким Сон Су, Драма, 2013) [HDTVRip, Любительский (двухголосый з ...
  • Чемпионат Англии 2013-14 / 1-й тур / Обзор Матчей / НТВ+ [20.08.2013, 720p, ...
  • Мужество / Wymyk (Грег Зглински, драма, 2011) [DVDRip, Любительский (одного ...
  • Чемпионат Германии 2012-2013 / 32-й тур / Обзор матчей / Футбол + (UA) [06. ...
  • Игра смерти / Game of death (Роберт Клауз, Саммо Хунг Кам-Бо, Брюс Ли, боев ...
  • Псы войны / The Dogs of War (Джон Ирвин, боевик, драма, приключения, военны ...
  • Плохая актриса / Bad Actress (Роберт Ли Кинг, комедия, 2011) [DVDRip, Профе ...
  • Без всего / Sin ella (Джордже Колон, Мелодрама, 2010) [HDTVRip , Профессион ...
  • [BBC] Мальчик, который уже жил / The Boy Who Lived Before (Документальный, ...
  • Формула 1 2011 / Этап 17 из 19 / Гран-При Индии / Гонка / Спорт 1 [30.10.20 ...
  • Олимпиада 2012 / Футбол / Мужчины / Группа A / 3-й тур / Великобритания - У ...
  • Tank Feat. T.I. & Kris Stephens / Compliments [2012, RnB,Hip-Hop, HDRip]
  • [BBC] Семь чудес Солнечной системы / 7 Wonders of The Solar System (докумен ...
  • Неделя в NBA с В.Гомельским / НТВ+ [28.06.2011, SD, XviD, RU, SAT]
  • [BBC] Сибирский апокалипсис / Siberian Apocalypse (Документальный, 2006) [H ...
  • Бессмертие / Immortality (Документальный, 2008) [SatRip, Профессиональный ( ...
  • Хитрая ворона (Галина Баринова, короткометражный мультфильм, 1980) [DVDRip, ...
  • Похищение / Rapt / Lösegeld (Люка Бельво, триллер, 2009) [HDRip, профессион ...
  • [NG] И человек приручил собаку / And Man Created Dog (Документальный, позна ...
  • Романтики / The Romantics (Галт Нидерхоффер, Драма, мелодрама, комедия, 201 ...
  • Мисс Март / Miss March (Тревор Мур, Комедия, 2009) [HDRip, Профессиональный ...
  • Человек-Мираж / Mirageman (Эрнесто Диаз Эспиноза, Комедия, боевик, криминал ...
  • Супершторм в Сиэтле / Seattle Superstorm (Джейсон Бурк, фантастика, боевик ...
  • Инкубус / Inkubus (Гленн Чиано, Ужасы, 2011) [DVDRip, Профессиональный (мно ...
  • Крузо / Crusoe (Калеб Дешанель, Драма, 1988) [HDTVRip, Профессиональный (дв ...
  • Информация
    Посетители, находящиеся в группе Гости, не могут оставлять комментарии к данной публикации.