вход на сайт

Имя пользователя :
Пароль :

Восстановление пароля Регистрация
Биомиметика - факты божественного сотворения жизни / Fact of creation documentaries (Документальный,научно-популярные фильмы, 2005) [DVDRip, Профессиональный (полное дублирование)]
Рейтинг:
(голосов: 1)



[img]{THEME}/images/logopost.png[/img]



Биомиметика - факты божественного сотворения жизни
Fact of creation documentaries

Страна: США
Производство: Неизвестно
Дата выхода в эфир: 2005
Жанр: Документальный,научно-популярные фильмы
Режиссёр: Харун Яхья
Ведущие: Неизвестны
Участники: Живая природа
Перевод: Профессиональный (полное дублирование)

Описание: Знания, получаемые людьми из природы, используются в современном мире повсюду, начиная от строительства и кончая медициной. И сегодня эти знания уже составили новую область науки: биомиметику. Биомиметика занимается изучением проектов и строений в природе. И следуя этим природным проектам, изобретает новые технологии и идеи для воплощения в жизнь.

Божественные замысел является причиной совершенного строения природы, человек же, изучая ее совершенство, лишь приближается к постижению безграничной мудрости Творца. Бог показывает нам примеры Своего беспредельного знания и мудрости в сущностях, сотворенных Им повсюду вокруг нас. В этом фильме вы увидите удивительные примеры биомиметики и узнаете, сколь великим доказательством божественного творения является окружающая нас жизнь.

Качество: DVDRip
Продолжительность: 00:45:40

Формат: AVI
Видео кодек: DivX 5
Аудио кодек: MP3
Свойства видео: 688x516 (4:3 ), 25.000 fps, DivX 5 ~1 999 kbps avg, 0.225bit/pixel
Свойства аудио: 48 kHz, MP3, 2/0 (L,R) ch, ~128 kbps | Профессиональный (полное дублирование)
MediaInfo ▼Format : AVI
Format/Info : Audio Video Interleave
File size : 698 MiB
Duration : 45mn 40s
Overall bit rate : 2 137 Kbps
Writing library : VirtualDub build 25854/release

Video
ID : 0
Format : MPEG-4 Visual
Format settings, BVOP : 1
Format settings, QPel : No
Format settings, GMC : No warppoints
Format settings, Matrix : Default (H.263)
Muxing mode : Packed bitstream
Codec ID : DX50
Codec ID/Hint : DivX 5
Duration : 45mn 40s
Bit rate : 1 999 Kbps
Width : 688 pixels
Height : 516 pixels
Display aspect ratio : 4:3
Frame rate : 25.000 fps
Color space : YUV
Chroma subsampling : 4:2:0
Bit depth : 8 bits
Scan type : Progressive
Compression mode : Lossy
Bits/(Pixel*Frame) : 0.225
Stream size : 653 MiB (94%)
Writing library : DivX 5.2.1 (WaffleDay) (UTC 2004-09-08)

Audio
ID : 1
Format : MPEG Audio
Format version : Version 1
Format profile : Layer 3
Mode : Joint stereo
Mode extension : MS Stereo
Codec ID : 55
Codec ID/Hint : MP3
Duration : 45mn 40s
Bit rate mode : Constant
Bit rate : 128 Kbps
Channel(s) : 2 channels
Sampling rate : 48.0 KHz
Compression mode : Lossy
Stream size : 41.8 MiB (6%)
Alignment : Split accross interleaves
Interleave, duration : 40 ms (1.00 video frame)
Interleave, preload duration : 500 ms





e8a6441ff7f31ce4d63d556ac9540ece5c85ec57Биомиметика - факты божественного сотворения жизни / Fact of creation documentaries (Документальный,научно-популярные фильмы, 2005) [DVDRip, Профессиональный (полное дублирование)] Биомиметика - факты божественного сотворения жизни / Fact of creation documentaries (Документальный,научно-популярные фильмы, 2005) [DVDRip, Профессиональный (полное дублирование)] " />

Аплоадер: Админ, дата: 16-07-2012, 11:51, торрент скачан: 359 раз

Понравилась раздача? Посмотрите эти:
  • Титанобоа: Змея-Монстр / Titanoboa: Monster Snake (документальный, живая пр ...
  • Чемпионат Италии 2012-13 / 36-й тур / Рома — Кьево / НТВ+ [07.05.2013, SD, ...
  • Зодиак / The Zodiac (Александр Балкли, ужасы, триллер, драма, криминал, дет ...
  • Мужчина нарасхват / Playing for Keeps (Габриэле Муччино, Мелодрама, комедия ...
  • В доме / Dans la maison (Франсуа Озон, Триллер, детектив, 2012) [HDRip, Про ...
  • Настоящее кунг-фу / Fat shan chaan sin sang / Real kung-fu // Сезон 1, Эпиз ...
  • Тюремщик / Screwed (Рег Тревисс / Reg Traviss, Драма, 2011) [DVDRip , Люби ...
  • [BBC] Мальчик, который уже жил / The Boy Who Lived Before (Документальный, ...
  • Чемпионат Европы 2012 / Группа C / 1-й тур / Ирландия — Хорватия / ТРК Футб ...
  • Олимпиада 2012 / Мужчины / Группа D / 1-й тур / Испания — Япония / НТВ+ [Фу ...
  • Олимпиада 2012 / Футбол / Мужчины / Группа A / 3-й тур / Великобритания - У ...
  • Чудеса Корана (Харун Яхья) [2005, DVDRip, Научно-познавательный, документал ...
  • Дневники разработчиков Nissan GT-R / The GT-R Legend (Хакидо Санир, Докумен ...
  • Вячеслав Бутусов."Когда умолкнут все песни..." (документальный, 15.10.2011) ...
  • Сын Маски / Son of the Mask (Лоуренс Гутерман / Lawrence Guterman, фэнтези, ...
  • Миф о матче смерти (Документальный, расследование, 2010) [DVDRip, Не требуе ...
  • Чемпионат России 2012-13 / 1-й тур / Мордовия - Локомотив / НТВ+ [Футбол, 2 ...
  • Олимпиада 2012 / Женщины, Мужчины / Плавание / Квалификация / НТВ+ [30.07.2 ...
  • Мемуары гейши / Memoirs of a Geisha (Роб Маршалл, драма, мелодрама, 2005) [ ...
  • Совершенство в пикселях / Pixel Perfect (Марк А.З. Диппе, фантастика, фэнте ...
  • Информация
    Посетители, находящиеся в группе Гости, не могут оставлять комментарии к данной публикации.