вход на сайт

Имя пользователя :
Пароль :

Восстановление пароля Регистрация
Великая Отечественная Война, Восточный фронт / World War II, The Eastern front // Фильм 1 по 3 (из 3) (Документальный, история, 1993) [DVDRip-AVC, не требуется]
Рейтинг:
(голосов: 1)



[img]{THEME}/images/logopost.png[/img]



Великая Отечественная Война, Восточный фронт / World War II, The Eastern front

Страна: Россия
Производство: Eastern Lights Productions, Castle Communications PLC
Год выпуска: 1993
Жанр: Документальный, история
Режиссёр: Максим Золотухин, Александр Айзенберг, Мэттью Кинг Кауфман
Ведущие: отсутствует
Участники: Хроника военных лет...

Перевод: не требуется

Описание: Фильм воссоздаёт грандиозную картину битвы 1941-45 г.г., где были и тяжкие поражения, и блестящие победы, и огромные потери, точное число которых не подсчитано до сих пор. В фильме собраны уникальные фото- и видеоматериалы Российского Государственного архива кинофотодокументов, Телерадиофонда, Госфильмофонда, Центрального музея Вооружённых сил, частных коллекций.

Качество: DVDRip-AVC
Формат: MKV
Продолжительность: 3x ~ 00:52:00 часа - Средняя продолжительность для одного эпизода

Фильм №1 ▼Дата выхода в эфир: 1993
Перевод: не требуется
Участники: Хроника военных лет...

Описание: Охватывает период подготовки к войне Германии и СССР и начальный этап войны, закончившийся провалом «блицкрига» и отступлением немцев от стен Москвы.

Формат: MKV
Видео кодек: AVC [email protected]
Аудио кодек: Audio Coding 3
Свойства видео: 768x576 (4:3), 25 fps, AVC ~1700 kbps avg, 0.154 bit/pixel
Свойства аудио: 48 kHz, AC3 Dolby Digital, 2/0 (L,R) ch, ~192 kbps

Информация MediaInfo ▼TextОбщее
Уникальный идентификатор : 242450757369474550142855660117414361748 (0xB666513EE14B7276BF62CB44CA2BBA94)
Полное имя : E:DownloadsВеликая Отечественная Война.1993.DVDRip-AVC1.Великая Отечественная Война (фильм 1).mkv
Формат : Matroska
Версия формата : Version 2
Размер файла : 711 Мбайт
Продолжительность : 52 м.
Общий поток : 1894 Кбит/сек
Дата кодирования : UTC 2013-07-09 05:26:41
Программа кодирования : mkvmerge v6.1.0 (Old Devil) built on Mar 4 2013 09:10:42
Библиотека кодирования : libebml v1.3.0 + libmatroska v1.4.0

Видео
Идентификатор : 1
Формат : AVC
Формат/Информация : Advanced Video Codec
Профиль формата : [email protected]
Параметр CABAC формата : Да
Параметр ReFrames формата : 5 кадров
Идентификатор кодека : V_MPEG4/ISO/AVC
Продолжительность : 52 м.
Битрейт : 1700 Кбит/сек
Ширина : 768 пикселей
Высота : 576 пикселей
Соотношение сторон : 4:3
Частота кадров : 25,000 кадров/сек
Цветовое пространство : YUV
Субдискретизация насыщенности : 4:2:0
Битовая глубина : 8 бит
Тип развёртки : Прогрессивная
Бит/(Пиксели*Кадры) : 0.154
Размер потока : 625 Мбайт (88%)
Библиотека кодирования : x264 core 130 r2273 b3065e6
Настройки программы : cabac=1 / ref=5 / deblock=1:-2:-2 / analyse=0x3:0x111 / me=umh / subme=9 / psy=1 / psy_rd=0.00:0.10 / mixed_ref=1 / me_range=32 / chroma_me=1 / trellis=2 / 8x8dct=1 / cqm=0 / deadzone=21,11 / fast_pskip=0 / chroma_qp_offset=-1 / threads=6 / lookahead_threads=1 / sliced_threads=0 / nr=0 / decimate=1 / interlaced=0 / bluray_compat=0 / constrained_intra=0 / bframes=5 / b_pyramid=2 / b_adapt=0 / b_bias=0 / direct=1 / weightb=1 / open_gop=0 / weightp=2 / keyint=250 / keyint_min=25 / scenecut=40 / intra_refresh=0 / rc_lookahead=50 / rc=2pass / mbtree=1 / bitrate=1700 / ratetol=1.0 / qcomp=0.60 / qpmin=0 / qpmax=69 / qpstep=4 / cplxblur=20.0 / qblur=0.5 / ip_ratio=1.40 / aq=1:1.00
Default : Да
Forced : Нет

Аудио
Идентификатор : 2
Формат : AC-3
Формат/Информация : Audio Coding 3
Расширение режима : CM (complete main)
Идентификатор кодека : A_AC3
Продолжительность : 52 м.
Вид битрейта : Постоянный
Битрейт : 192 Кбит/сек
Каналы : 2 канала
Расположение каналов : Front: L R
Частота : 48,0 КГц
Битовая глубина : 16 бит
Метод сжатия : С потерями
Размер потока : 72,1 Мбайт (10%)
Default : Да
Forced : Нет


"Скриншот" ▼

Фильм №2 ▼Дата выхода в эфир: 1993
Перевод: не требуется
Участники: Хроника военных лет...

Описание: Посвящена событиям 1942 - 43 годов, важнейшим и
758ee4973ff0497ab9f7e4ee8948e854961ef17cВеликая Отечественная Война, Восточный фронт / World War II, The Eastern front // Фильм 1 по 3 (из 3) (Документальный, история, 1993) [DVDRip-AVC, не требуется] Великая Отечественная Война, Восточный фронт / World War II, The Eastern front // Фильм 1 по 3 (из 3) (Документальный, история, 1993) [DVDRip-AVC, не требуется] " />

Аплоадер: Админ, дата: 20-07-2013, 17:42, торрент скачан: 359 раз

Понравилась раздача? Посмотрите эти:
  • [NG] Комета века / Comet of the century (документальный, 2013) [HDTVRip-AVC ...
  • [BBC] Как устроена природа / BBC. How Nature Works // Эпизод 1 по 4 (из 4) ...
  • Усатый нянь (Владимир Грамматиков, комедия, семейный, 1977) [DVDRip-AVC, Не ...
  • 1993. Осень в огне (документальный, 2013) [HDTVRip-AVC, не требуется]
  • Они сражались за Родину (полная версия) (Сергей Бондарчук, драма, военный, ...
  • Филадельфия / Philadelphia (Джонатан Демме, Драма, 1993) [BDRip-AVC, Профес ...
  • Обман Обамы / The Obama Deception: The Mask Comes Off (Документальный, 2009 ...
  • Фальшивомонетчики. Гении и злодеи. (Документальный, 2004) [DVDRip-AVC, не т ...
  • [NG] Медоеды: Змеиные убийцы / Honey Badgers of the Kalahari. Snake Killers ...
  • [BBC] BBC: Безжалостные убийцы / BBC: Ultimate Killers // Выпуск 1 по 3 (из ...
  • [BBC] BBC: Змеи / Wildlife Special. Serpent (Документальный, 2003) [DVDRip- ...
  • Кавказский пленник (Сергей Бодров, драма, военный, 1996) [DVDRip-AVC, не тр ...
  • [NG] Война львов / Lion Battle Zone (документальный, 2011) [HDTVRip-AVC, Пр ...
  • Новые технологии войны / The New Technology of War [Часть 1] (документальны ...
  • Новые технологии войны / The New Technology of War [Часть 2] (документальны ...
  • Дикий запад. Кино и реальность / The Wild And The West (документальный, 200 ...
  • Чемпионат Англии 2012-2013 / 25-й тур / Обзор / Суббота / BBC Sport [2013 г ...
  • Лоракс: Серенада / The Lorax: Serenade (Кайл Балда, мультфильм, комедия, му ...
  • Чемпионат Мира 2014 | Отборочный турнир | Европа | World Cup Qualifiers - H ...
  • Великая Отечественная Война - Восточный фронт (Александр Айзенберг, Максим ...
  • Информация
    Посетители, находящиеся в группе Гости, не могут оставлять комментарии к данной публикации.