вход на сайт

Имя пользователя :
Пароль :

Восстановление пароля Регистрация
Сталин и Зоя: трудное решение (документальный, исторический, 2012) [WEBRip, не требуется]
Рейтинг:
(голосов: 1)



[img]{THEME}/images/logopost.png[/img]



Сталин и Зоя: трудное решение


Страна: Россия
Производство: Меняйлов и "Девушки за Зою Космодемьянскую"
Год выпуска: 2012
Жанр: документальный
Режиссёр: Алексей Меняйлов
Ведущие: отсутствует
Участники: Алексей Меняйлов

Перевод: не требуется

Описание
Почему на допросе Зои Космодемьянской гитлеровцы допытывались где Сталин? Ведь никого другого об этом немцы не спрашивали. Да и вообще вокруг Зои, куда не глянь - сплошные аномалии.


Тех.Данные
Качество: WEBRip
Продолжительность: 00:43:11 часа

Формат: MPEG-PS
Видео кодек: MPEG Video
Аудио кодек: MPEG Layer 2
Свойства видео: 720x576 (4:3), 25 fps, MPEG Video ~3315 kbps avg, 0.32 bit/pixel
Свойства аудио: 48 kHz, MPEG Layer 2, 2 ch, ~224.00 kbps avg

Информация MediaInfo ▼TextОбщее
Полное имя : E:DownloadsСталин и Зоя. трудное решение.2012.WEBRip.mpg
Формат : MPEG-PS
Размер файла : 1,09 Гбайт
Продолжительность : 43 м.
Режим общего битрейта : Переменный
Общий поток : 3611 Кбит/сек

Видео
Идентификатор : 224 (0xE0)
Формат : MPEG Video
Версия формата : Version 2
Профиль формата : [email protected]
Параметр BVOP формата : Да
Параметр матрицы формата : По умолчанию
Параметр GOP формата : M=3, N=12
Продолжительность : 43 м.
Вид битрейта : Переменный
Битрейт : 3315 Кбит/сек
Максимальный битрейт : 6000 Кбит/сек
Ширина : 720 пикселей
Высота : 576 пикселей
Соотношение сторон : 4:3
Частота кадров : 25,000 кадров/сек
Стандарт вещания : PAL
Цветовое пространство : YUV
Субдискретизация насыщенности : 4:2:0
Битовая глубина : 8 бит
Тип развёртки : Чересстрочная
Порядок развёртки : Верхнее поле первое
Метод сжатия : С потерями
Бит/(Пиксели*Кадры) : 0.320
Размер потока : 1,00 Гбайт (92%)

Аудио
Идентификатор : 192 (0xC0)
Формат : MPEG Audio
Версия формата : Version 1
Профиль формата : Layer 2
Продолжительность : 43 м.
Вид битрейта : Постоянный
Битрейт : 224 Кбит/сек
Каналы : 2 канала
Частота : 48,0 КГц
Метод сжатия : С потерями
Размер потока : 69,2 Мбайт (6%)




dd5e9545da89a9b2a76f5881a9819b2cba241666Сталин и Зоя: трудное решение (документальный, исторический, 2012) [WEBRip, не требуется] Сталин и Зоя: трудное решение (документальный, исторический, 2012) [WEBRip, не требуется] " />

Аплоадер: Админ, дата: 24-06-2013, 11:57, торрент скачан: 359 раз

Понравилась раздача? Посмотрите эти:
  • Hurts / Somebody to Die For [2013, Pop, WEBRip]
  • Inna feat. Juan Magan / Un Momento [2011, Pop, Dance, Master]
  • Герои / Закаты алые [2012, Pop, WebRip]
  • Tonari no kaibutsu kun / Rihanna Diamonds (2012)
  • Ariana Grande - ft. Mac Miller / The Way [2013, Pop, WEB-DLRip 1080p]
  • Тайны советского кино - "Любовь и голуби" (документальный, Эфир от 13.06.20 ...
  • [NG] Атака больших кошек / Attack of the Big Cats (Эллисон П. Феликс, докум ...
  • Что надо знать о женщине, садясь с ней в машину (документальный, 2013) [WEB ...
  • Как человек бросал курить (Сергей Андрюшкин, Документальный, 2011) [DVD5, н ...
  • Kobe Bryant Takes Over [720p] [2011, Баскетбол, HDTV/720p]
  • Kylie Minogue / Live At Last Night of The Proms [2012, Pop, HDTVRip 1080i]
  • Нонито Донэйр - Хорхе Арсе / Nonito Donaire vs Jorge Arce [Бокс, 15.12.2012 ...
  • Дантес и Олейник / Ты в прошлом [2010, Pop, TVRip]
  • Клятва / The Vow (Майкл Сакси, драма, мелодрама, 2012) [DVD5, Профессиональ ...
  • Вирус / Попрошу тебя [2001, Pop, DVD]
  • Краски / Старший брат - 2 [2003, Pop, DVD5]
  • Вирус / Ручки [1999, Pop, TVRip]
  • Чемпионат Мира 2012 / Финал / Россия - Словакия [Хоккей, 2012, HDTV 1080i]
  • Американский пирог: Все в сборе / American Reunion (Джон Харвитц, Хейден Шл ...
  • Schiller / Mitternacht [2010, Ambient, WebRip]
  • Информация
    Посетители, находящиеся в группе Гости, не могут оставлять комментарии к данной публикации.