вход на сайт

Имя пользователя :
Пароль :

Восстановление пароля Регистрация
Порно звезда. Предание о Роне Джереми / Porn star. The Legend of Ron Jeremy (документальный, биография, 2001) [DVDRip-AVC, Авторский (одноголосый, закадровый)]
Рейтинг:
(голосов: 1)



[img]{THEME}/images/logopost.png[/img]



Порно звезда. Предание о Роне Джереми / Porn star. The Legend of Ron Jeremy

«The Story of Americas Most Unlikely Sex Star»

Страна:США
Производство: District Films, Radius Productions
Год выпуска: 2001
Жанр: документальный, биография
Режиссёр: Скотт Дж. Гилл
Ведущие: отсутствует
Участники: Рон Джереми, Уильям Маргольд, Аль Голдштейн,Аль Льюис, Сеймор Баттс, Шарон Митчел, Ларри Флинт, Крис Кэннон, Табита Стивенс, Вероника Харт

Перевод: Авторский (одноголосый, закадровый) [Константин Филонов]

« Описание »
Документальная лента в подробностях рассказывает нам историю обыкновенного еврейского паренька из Квинса, который всю жизнь мечтал быть актёром и сниматься в обыкновенных, мэйнстримовских картинах. Однако, мечты так и остались мечтами. Снявшись когда-то в молодости (исключительно ради денег) в нескольких порнографических фильмах, Рон так втянулся в это дело, что оно стало главным занятием всей его жизни. Отныне дорога в большое, высокохудожественное кино была мистеру Джереми заказана. В Америке не любят снимать порно звёзд в «нормальном» кино.



« Тех.Данные »
Качество: DVDRip-AVC

Продолжительность: 01:16:33 часа

Формат: MKV
Видео кодек: AVC [email protected]
Аудио кодек: Audio Coding 3
Свойства видео: 720x544 (4:3), 25 fps, AVC ~1619 kbps avg, 0.165 bit/pixel
Свойства аудио: 48.00 kHz, AC3, 2 ch, ~ 192.00 kbps avg

MediaInfo ▼TextОбщее
Уникальный идентификатор : 170758786638151675915884583237093857727 (0x8076F230076E0F8199910206668A99BF)
Полное имя : D:DownloadsПорно звезда. Предание о Роне Джереми.mkv
Формат : Matroska
Версия формата : Version 2
Размер файла : 994 Мбайт
Продолжительность : 1 ч. 16 м.
Общий поток : 1816 Кбит/сек
Дата кодирования : UTC 2012-07-28 20:21:15
Программа кодирования : mkvmerge v5.0.1 (Es ist Sommer) built on Nov 6 2011 16:23:40
Библиотека кодирования : libebml v1.2.2 + libmatroska v1.3.0

Видео
Идентификатор : 1
Формат : AVC
Формат/Информация : Advanced Video Codec
Профиль формата : [email protected]
Параметр CABAC формата : Да
Параметр ReFrames формата : 8 кадров
Идентификатор кодека : V_MPEG4/ISO/AVC
Продолжительность : 1 ч. 16 м.
Битрейт : 1619 Кбит/сек
Ширина : 720 пикселей
Высота : 544 пикселя
Соотношение сторон : 4:3
Частота кадров : 25,000 кадров/сек
Цветовое пространство : YUV
Субдискретизация насыщенности : 4:2:0
Битовая глубина : 8 бит
Тип развёртки : Прогрессивная
Бит/(Пиксели*Кадры) : 0.165
Размер потока : 869 Мбайт (87%)
Библиотека кодирования : x264 core 119 r2106 07efeb4
Настройки программы : cabac=1 / ref=8 / deblock=1:-1:-1 / analyse=0x3:0x133 / me=umh / subme=7 / psy=1 / psy_rd=1.00:0.10 / mixed_ref=1 / me_range=16 / chroma_me=1 / trellis=2 / 8x8dct=1 / cqm=0 / deadzone=21,11 / fast_pskip=0 / chroma_qp_offset=-3 / threads=3 / sliced_threads=0 / nr=0 / decimate=1 / interlaced=0 / bluray_compat=0 / constrained_intra=0 / bframes=3 / b_pyramid=2 / b_adapt=2 / b_bias=0 / direct=1 / weightb=1 / open_gop=0 / weightp=2 / keyint=250 / keyint_min=25 / scenecut=40 / intra_refresh=0 / rc_lookahead=50 / rc=abr / mbtree=1 / bitrate=1619 / ratetol=1.0 / qcomp=0.60 / qpmin=0 / qpmax=69 / qpstep=4 / ip_ratio=1.40 / aq=1:1.00
Default : Да
Forced : Нет

Аудио
Идентификатор : 2
Формат : AC-3
Формат/Информация : Audio Coding 3
Расширение режима : CM (complete main)
Идентификатор кодека : A_AC3
Продолжительность : 1 ч. 16 м.
Вид битрейта : Постоянный
Битрейт : 192 Кбит/сек
Каналы : 2 канала
Расположение каналов : Front: L R
Частота : 48,0 КГц
Битовая глубина : 16 бит
Метод сжатия : С потерями
Размер потока : 105 Мбайт (11%)
Default : Да
Forced : Нет





b14301b55be3df903b9c3d3f1c10f658cddd0202Порно звезда. Предание о Роне Джереми / Porn star. The Legend of Ron Jeremy (документальный, биография, 2001) [DVDRip-AVC, Авторский (одноголосый, закадровый)] Порно звезда. Предание о Роне Джереми / Porn star. The Legend of Ron Jeremy (документальный, биография, 2001) [DVDRip-AVC, Авторский (одноголосый, закадровый)] " />

Аплоадер: Админ, дата: 31-07-2012, 10:52, торрент скачан: 359 раз

Понравилась раздача? Посмотрите эти:
  • Тело / El cuerpo (Ориол Паоло, триллер, 2012) [BDRip-AVC, Авторский (одного ...
  • [NG] Комета века / Comet of the century (документальный, 2013) [HDTVRip-AVC ...
  • [BBC] Как устроена природа / BBC. How Nature Works // Эпизод 1 по 4 (из 4) ...
  • Мальчишник: Часть III / The Hangover Part III (Тодд Филлипс, комедия, 2013) ...
  • Обман Обамы / The Obama Deception: The Mask Comes Off (Документальный, 2009 ...
  • [NG] Медоеды: Змеиные убийцы / Honey Badgers of the Kalahari. Snake Killers ...
  • [BBC] BBC: Безжалостные убийцы / BBC: Ultimate Killers // Выпуск 1 по 3 (из ...
  • [BBC] BBC: Змеи / Wildlife Special. Serpent (Документальный, 2003) [DVDRip- ...
  • [NG] На крючке: Ловля монстров. Гигантский скат / Monster Fish. Giant Sting ...
  • [NG] Война львов / Lion Battle Zone (документальный, 2011) [HDTVRip-AVC, Пр ...
  • Новые технологии войны / The New Technology of War [Часть 1] (документальны ...
  • Новые технологии войны / The New Technology of War [Часть 2] (документальны ...
  • Дикий запад. Кино и реальность / The Wild And The West (документальный, 200 ...
  • Суррогат / The Sessions (Бен Луин, Драма, 2012) [BDRip-AVC, Профессиональны ...
  • Чемпионат Англии 2012-2013 / 25-й тур / Обзор / Суббота / BBC Sport [2013 г ...
  • Эд Вуд / Ed Wood (Тим Бёртон, драма, комедия, биография, 1994) [BDRip-AVC, ...
  • Котенок с улицы Лизюкова (Вячеслав Котеночкин, Мультфильм, 1988) [DVDRip-AV ...
  • Сид, инструкция по выживанию / Surviving Sid (Гален Т. Чу / Galen T. Chu, К ...
  • Скрат: Потерянный орех / Scrat: Gone Nutty (Карлос Салдана, короткометражка ...
  • Лоракс: Серенада / The Lorax: Serenade (Кайл Балда, мультфильм, комедия, му ...
  • Мифы Амазонки / Mythos Amazonas // Сезон 1, выпуски 1-3 (из 3) (документаль ...
  • [NG] Гитлеровские лагеря смерти / Hitlers G.I. Death Camp (документальный, ...
  • VA (Korn, Flyleaf, Deftones, Dir En Grey, 10 Years, Stone Sour, Deadsy) / F ...
  • Преследование / Слежка / Following (Кристофер Нолан, триллер, драма, кримин ...
  • Сейчас самое время / Now Is Good (Ол Паркер, Мелодрама, 2012) [BDRip-AVC, П ...
  • Информация
    Посетители, находящиеся в группе Гости, не могут оставлять комментарии к данной публикации.