вход на сайт

Имя пользователя :
Пароль :

Восстановление пароля Регистрация
Тайны советского кино - "Любовь и голуби" (документальный, Эфир от 13.06.2011) [DVB, Оригинал (русский)]
Рейтинг:
(голосов: 1)



[img]{THEME}/images/logopost.png[/img]



Тайны советского кино - "Любовь и голуби"


Страна:Россия
Производство: Студия "Ивана Усачева", ТВЦ
Год выпуска: 13.06.2011
Жанр: документальный
Режиссёр: Максим Володин, Юрий Курочкин
Ведущие: Иван Усачев
Участники: Актеры фильма "Любовь и Голуби"

Перевод: Оригинал (русский)

Описание
Документальный фильм «Тайны советского кино. "Любовь и голуби"» обращается к одной из загадочных страниц истории съемок знаменитой советской ленты. Фильм «Любовь и голуби» давно считается главным советским фильмом о любви. Для режиссера Владимира Меньшова, снявшего ленту, самым большим комплиментом является признание коллег, утверждающих, что если мелодраму «Москва слезам не верит» они бы еще и сняли, то картину «Любовь и голуби» снять так, как это получилось у Меньшова, уже не смогли.

С момента выхода фильма прошло уже много лет, и актеры, сыгравшие в нем, уже давно стали родными для всей страны. Однако, мало кто знает, что у персонажей картины били вполне реальные прототипы. Авторы фильма «Тайны советского кино. "Любовь и голуби"» пытаются разгадать главную тайну картины и отправляются на родину семьи Кузякиных.


Тех.Данные
Качество: ÐVВ

Продолжительность: 00:25:58 часа

Формат: MPEG-PS
Видео кодек: MPEG Video
Аудио кодек: MPEG Layer 2
Свойства видео: 704x576 (4:3), 25 fps, MPEG Video ~3065 kbps avg, 0.302 bit/pixel
Свойства аудио: 48 kHz, MPEG Layer 2, 2 ch, ~192.00 kbps avg

Информация MediaInfo ▼TextОбщее
Полное имя : E:DownloadsТайны нашего кино. Любовь и голуби .2011.DVB.mpg
Формат : MPEG-PS
Размер файла : 617 Мбайт
Продолжительность : 25 м.
Режим общего битрейта : Переменный
Общий поток : 3323 Кбит/сек
Библиотека кодирования : (c) 1998-2008 Womble Multimedia, Inc. / MPEG Video Wizard (08/2008) / Aug 25 2008

Видео
Идентификатор : 224 (0xE0)
Формат : MPEG Video
Версия формата : Version 2
Профиль формата : [email protected]
Параметр BVOP формата : Да
Параметр матрицы формата : Выборочная
Продолжительность : 25 м.
Вид битрейта : Переменный
Битрейт : 3065 Кбит/сек
Максимальный битрейт : 15,0 Мбит/сек
Ширина : 704 пикселя
Высота : 576 пикселей
Соотношение сторон : 4:3
Частота кадров : 25,000 кадров/сек
Стандарт вещания : PAL
Цветовое пространство : YUV
Субдискретизация насыщенности : 4:2:0
Битовая глубина : 8 бит
Тип развёртки : Прогрессивная
Порядок развёртки : Верхнее поле первое
Метод сжатия : С потерями
Бит/(Пиксели*Кадры) : 0.302
Размер потока : 569 Мбайт (92%)
Библиотека кодирования : (c) 1998-2008 Womble Multimedia, Inc. / MPEG Video Wizard (08/2008) / Aug 25 2008

Аудио
Идентификатор : 192 (0xC0)
Формат : MPEG Audio
Версия формата : Version 1
Профиль формата : Layer 2
Продолжительность : 25 м.
Вид битрейта : Постоянный
Битрейт : 192 Кбит/сек
Каналы : 2 канала
Частота : 48,0 КГц
Метод сжатия : С потерями
Размер потока : 35,7 Мбайт (6%)




8390fb0f725282b341228fd2f6c31f017a2c65f7Тайны советского кино - "Любовь и голуби" (документальный, Эфир от 13.06.2011) [DVB, Оригинал (русский)] Тайны советского кино - "Любовь и голуби" (документальный, Эфир от 13.06.2011) [DVB, Оригинал (русский)] " />

Аплоадер: Админ, дата: 6-04-2013, 14:07, торрент скачан: 359 раз

Понравилась раздача? Посмотрите эти:
  • DJ Sava Feat. Raluka & Connect-R / Love You [2011, Pop, Master]
  • Сталин и Зоя: трудное решение (документальный, исторический, 2012) [WEBRip, ...
  • Ariana Grande - ft. Mac Miller / The Way [2013, Pop, WEB-DLRip 1080p]
  • Что надо знать о женщине, садясь с ней в машину (документальный, 2013) [WEB ...
  • Как человек бросал курить (Сергей Андрюшкин, Документальный, 2011) [DVD5, н ...
  • Kobe Bryant Takes Over [720p] [2011, Баскетбол, HDTV/720p]
  • Uma2rmaH (Уматурман) / Необыкновенный концерт в клубе МАО [2010, Pop, SATRi ...
  • Бог любви / God of Love (Люк Мэзени, Короткометражка, фэнтези, комедия, мел ...
  • Любовь по расписанию / Поезд (Сергей Мезенцев, мелодрама, 2012) [HDTVRip, Н ...
  • Любовь и голуби (Владимир Меньшов, Комедия, Мелодрама, 1984 г) [DVDRip, Ори ...
  • Любовь-морковь 3 (Сергей Гинзбург, Комедия, 2011) [DVD5, Оригинал]
  • Тайны советского кино: Иван Васильевич меняет профессию (Документальный, 20 ...
  • Паутинка бабьего лета (Алина Чеботарева, мелодрама, 2011) [DVB, Не требуетс ...
  • Тайны советского кино. "Вий" (документальный, 2012) [SATRip, оригинал]
  • [NG] Тайны дикой природы Индии: Хищники джунглей / Secrets of Wild India: T ...
  • Тайны советского кино: "Иди и смотри", "Уроки французского", "Кортик", "Бро ...
  • Вирус / Попрошу тебя [2001, Pop, DVD]
  • Краски / Старший брат - 2 [2003, Pop, DVD5]
  • Вирус / Ручки [1999, Pop, TVRip]
  • Бюро находок : Потерянный и найденный / Lost and Found (Филип Хант, коротко ...
  • Информация
    Посетители, находящиеся в группе Гости, не могут оставлять комментарии к данной публикации.