вход на сайт

Имя пользователя :
Пароль :

Восстановление пароля Регистрация
Караваджо. Тайна смерти гения / Caravaggio. The mystery of the death of a genius (документальный, 2011) [DVB, Профессиональный (одноголосый)]
Рейтинг:
(голосов: 1)



[img]{THEME}/images/logopost.png[/img]



Караваджо. Тайна смерти гения / Caravaggio. The mystery of the death of a genius

Страна: Англия, Италия, США
Производство: Планета 2.0
Год выпуска: 2011
Жанр: документальный

Режиссёр: Marco Visalberghi / Марко Визалберг

Ведущие: Каролин Квентин
Участники: Лука Лионелло и др.
Перевод: Профессиональный (одноголосый)

Описание: Караваджо погиб в 1610 году в возрасте 39 лет в городе Порто д’Эрколе. О причинах его смерти ходило очень много слухов. Итальянские специалисты считают, что им удалось открыть тайну смерти великого живописца Микеланджело да Караваджо.

Качество: DVB
Продолжительность: 00:52:21

Формат: MPEG
Видео кодек: MPEG2
Аудио кодек: MPEG1 Layer 2
Свойства видео: 720x576 (4:3), 25 fps, 2633 kbps, 0.254bit/pixel
Свойства аудио: 48 kHz, MPEG Audio, 2 ch, 192 kbps
MediaInfo ▼
TextH:222-mpegКараваджо. Тайна смерти гения.mpg
General
Complete name : H:222-mpegКараваджо. Тайна смерти гения.mpg
Format : MPEG-PS
File size : 1.05 GiB
Duration : 52mn 21s
Overall bit rate : 2 882 Kbps
Writing library : (c) 1998-2008 Womble Multimedia, Inc. / MPEG Video Wizard (08/2008) / Aug 25 2008
Video #224
ID : 224 (0xE0)
Format : MPEG Video
Format version : Version 2
Format profile : [email protected]
Format settings, BVOP : Yes
Format settings, Matrix : Custom
Format settings, GOP : M=1, N=21
Duration : 52mn 21s
Bit rate mode : Variable
Bit rate : 2 633 Kbps
Nominal bit rate : 15.0 Mbps
Width : 720 pixels
Height : 576 pixels
Display aspect ratio : 4:3
Frame rate : 25.000 fps
Standard : PAL
Color space : YUV
Chroma subsampling : 4:2:0
Bit depth : 8 bits
Scan type : Interlaced
Scan order : Top Field First
Compression mode : Lossy
Bits/(Pixel*Frame) : 0.254
Stream size : 986 MiB (91%)
Writing library : (c) 1998-2008 Womble Multimedia, Inc. / MPEG Video Wizard (08/2008) / Aug 25 2008
Audio #192
ID : 192 (0xC0)
Format : MPEG Audio
Format version : Version 1
Format profile : Layer 2
Duration : 52mn 21s
Bit rate mode : Constant
Bit rate : 192 Kbps
Channel(s) : 2 channels
Sampling rate : 48.0 KHz
Compression mode : Lossy
Delay relative to video : -40ms
Stream size : 71.9 MiB (7%)


667f5d4ef11f0ac004d71c7c1300c48ec1939a97Караваджо. Тайна смерти гения / Caravaggio. The mystery of the death of a genius (документальный, 2011) [DVB, Профессиональный (одноголосый)] Караваджо. Тайна смерти гения / Caravaggio. The mystery of the death of a genius (документальный, 2011) [DVB, Профессиональный (одноголосый)] " />

Аплоадер: Админ, дата: 7-01-2012, 14:02, торрент скачан: 359 раз

Понравилась раздача? Посмотрите эти:
  • Inna / More Than Friends [2013, Pop, Master]
  • Достучаться До Небес / ГУГЛ [2013, Pop, Master]
  • Орудие смерти / A-i-deul... (Ли Гю Ман, Триллер, криминал, 2011) [DVDRip, П ...
  • Пепел // Эпизоды с 1 по 10 (из 10) (Военный, история, 2013) [DVB, Не требуе ...
  • ВВС: Выжить в автокатастрофе / BBC: Horizon. Surviving a Car Crash (докумен ...
  • Чемпионат Италии 2012-13 / 36-й тур / Рома — Кьево / НТВ+ [07.05.2013, SD, ...
  • Игра смерти / Game of death (Роберт Клауз, Саммо Хунг Кам-Бо, Брюс Ли, боев ...
  • [BBC] Мальчик, который уже жил / The Boy Who Lived Before (Документальный, ...
  • Олимпиада 2012 / Мужчины / Группа D / 1-й тур / Испания — Япония / НТВ+ [Фу ...
  • Andreea Balan / Trippin [2011, Pop, HDCam]
  • Рождество Христово - Торжественное Рождественское богослужение из Храма Хр ...
  • Смерти нет. Тайна академика Бехтерева (Документальный / 2008 г) [TVRip]
  • t.A.T.u. / Sparks [2010, Pop, TVRip]
  • [BBC] Как вырастить гения? / Can you make a genius? (Документальный, научно ...
  • Тимати, B.K., DJ M.E.G. / Welcome to St. Tropez. Фан Зона. Новая Волна 2011 ...
  • Дневники разработчиков Nissan GT-R / The GT-R Legend (Хакидо Санир, Докумен ...
  • Чемпионат Испании 2011-12 / 35-й тур / Барселона - Реал М / НТВ+ [Футбол, 2 ...
  • [BBC] Тайна чёрной смерти / The Mystery of the black death (документальный, ...
  • ХХХ Летние Олимпийские Игры / Лёгкая атлетика / День 5 / Утро / Спорт 1 [07 ...
  • ХХХ Летние Олимпийские Игры / Лёгкая атлетика / День 5 / Вечер / Спорт 1 [0 ...
  • ХХХ Летние Олимпийские Игры / Волейбол / Мужчины / Четвертьфинал / Польша – ...
  • ХХХ Летние Олимпийские Игры / Лёгкая атлетика / День 6 / Вечер / Спорт 1 [0 ...
  • ХХХ Летние Олимпийские Игры / Лёгкая атлетика / День 7 / Утро / Спорт 1 [09 ...
  • Лига Европы 2012-13 / 5-й тур / Группа А / Ливерпуль (Англия) - Янг Бойз (Ш ...
  • Namie Amuro / Love Story [2011, JPop, HDTVRip]
  • Информация
    Посетители, находящиеся в группе Гости, не могут оставлять комментарии к данной публикации.