вход на сайт

Имя пользователя :
Пароль :

Восстановление пароля Регистрация
Вячеслав Бутусов."Когда умолкнут все песни..." (документальный, 15.10.2011) [SATRip, не требуется]
Рейтинг:
(голосов: 1)



[img]{THEME}/images/logopost.png[/img]



Вячеслав Бутусов."Когда умолкнут все песни..."

Страна: Россия
Производство: ОАО "1 канал"
Дата выхода в эфир: 15.10.2011
Жанр: Документальный
Режиссёр: Андрей Владимиров
Ведущие: Александр Балашов
Участники: Вячеслав Бутусов, его семья, бывшие участники группы "Nautilus Pompilius", друзья и родственники Вячеслава Бутусова
Перевод: Не требуется

Описание: Музыканта Вячеслава Бутусова знают все, а Бутусова - человека только самые близкие. Он и по сей день, как капитан Немо, без лишнего повода предпочитает не покидать свою "подводную лодку".

Качество: SATRip
Продолжительность: 00:51:58

Формат: AVI
Видео кодек: DivX 5.0
Аудио кодек: MP3
Свойства видео: 704х384(16:9), 25 fps, DivX 5 ~1 501 Kbps avg , 0.222 bit/pixel
Свойства аудио: 48 kHz, MPEG Layer 3, 2 ch, ~128.00 kbps avg
MediaInfo ▼ Vyacheslav.Butusov.Kogda.umolknut.vse.pesni.2011.avi
General
Complete name : G:Vyacheslav.Butusov.Kogda.umolknut.vse.pesni.2011.avi
Format : AVI
Format/Info : Audio Video Interleave
File size : 609 MiB
Duration : 51mn 58s
Overall bit rate : 1 638 Kbps
Writing library : VirtualDub build 28312/release
Video #0
ID : 0
Format : MPEG-4 Visual
Format settings, BVOP : Yes
Format settings, QPel : No
Format settings, GMC : No warppoints
Format settings, Matrix : Default (H.263)
Muxing mode : Packed bitstream
Codec ID : DX50
Codec ID/Hint : DivX 5
Duration : 51mn 58s
Bit rate : 1 501 Kbps
Width : 704 pixels
Height : 384 pixels
Display aspect ratio : 16:9
Frame rate : 25.000 fps
Color space : YUV
Chroma subsampling : 4:2:0
Bit depth : 8 bits
Scan type : Progressive
Bits/(Pixel*Frame) : 0.222
Stream size : 558 MiB (92%)
Writing library : DivX 6.8.5 (UTC 2009-08-20)
Audio #1
ID : 1
Format : MPEG Audio
Format version : Version 1
Format profile : Layer 3
Mode : Joint stereo
Mode extension : MS Stereo
Codec ID : 55
Codec ID/Hint : MP3
Duration : 51mn 58s
Bit rate mode : Constant
Bit rate : 128 Kbps
Channel(s) : 2 channels
Sampling rate : 48.0 KHz
Video delay : 160ms
Stream size : 47.6 MiB (8%)
Alignment : Split accross interleaves
Interleave, duration : 40 ms (1.00 video frame)
Interleave, preload duration : 500 ms


ДОстояние РЕспублики. Вячеслав Бутусов (ТВ-Шоу, 21.10.2011) [SATRip, не требуется]


e118dba4c9d10be5bc0045c3b0e8f05e01546737Вячеслав Бутусов."Когда умолкнут все песни..." (документальный, 15.10.2011) [SATRip, не требуется] Вячеслав Бутусов."Когда умолкнут все песни..." (документальный, 15.10.2011) [SATRip, не требуется] " />

Аплоадер: Админ, дата: 18-10-2011, 23:31, торрент скачан: 359 раз

Понравилась раздача? Посмотрите эти:
  • Вячеслав Бутусов / Песня идущего домой [2004, Rock, SATRip]
  • Чемпионат Германии 2012-2013 / 32-й тур / Обзор матчей / Футбол + (UA) [06. ...
  • (2011) Вячеслав Бутусов и гр. Ю-Питер / ДОстояние РЕспублики (Rock) [MP3, ...
  • Вячеслав Бутусов и группа Ю-Питер / Юбилейный концерт [2013, Rock, HDTV 108 ...
  • Дом ветра (Вячеслав Златопольский, Драма, 2011) [DVDRip, Не требуется]
  • Чемпионат Германии 2011-12 / 28-й тур / Боруссия Д - Штутгарт / НТВ+ [Футбо ...
  • Чемпионат Испании 2011-12 / 36-й тур / Реал Мадрид - Севилья / НТВ+ [Футбол ...
  • Олимпиада 2012 / Футбол / Мужчины / Группа A / 3-й тур / Великобритания - У ...
  • Тайные знаки конца света // Фильм 3 (документальный, 09.12.2012) [SATRip, ...
  • Неделя в NBA с В.Гомельским / НТВ+ [28.06.2011, SD, XviD, RU, SAT]
  • Пока Все Дома // Вячеслав Бутусов в гостях (Документальный, 25.04.2010) [T ...
  • Дневники разработчиков Nissan GT-R / The GT-R Legend (Хакидо Санир, Докумен ...
  • Как приручить удачу (Документальный, 2011) [SatRip, Оригинал]
  • Ельцин. Три дня в августе (Александр Мохов, Драма, Исторический, 2011) [SAT ...
  • Тайны советского кино: Иван Васильевич меняет профессию (Документальный, 20 ...
  • Он вам врет! (Документальный, 2011) [SatRip, не требуется]
  • ДОстояние РЕспублики. Вячеслав Бутусов [2011 г., Rock, SATRip]
  • Штурм подсознания (Документальный, 2011) [SatRip, Оригинал]
  • Высоцкий: Где-то в чужой незнакомой ночи... (Документальный, 2011) [SatRip, ...
  • Чемпионат Англии 2011-12 / 32-й тур / Обзор тура / Спорт 1 [Футбол, 10.04.2 ...
  • Чемпионат Англии 2011-2012 / Championship / 45-й Тур / Обзор Матчей / НТВ+ ...
  • Лига Чемпионов 2011-12 / 1/2 финала / Ответный матч / Реал Мадрид – Бавария ...
  • Лига Чемпионов 2011-12 / 1/2 финала / Ответный матч / Реал Мадрид (Испания) ...
  • Товарищеский матч 2012 / Звезды мирового футбола в Майами / "Друзья Месси" ...
  • Олимпиада 2012 / Женщины, Мужчины / Плавание / Квалификация / НТВ+ [30.07.2 ...
  • Информация
    Посетители, находящиеся в группе Гости, не могут оставлять комментарии к данной публикации.