вход на сайт

Имя пользователя :
Пароль :

Восстановление пароля Регистрация
[EN] Дом / Home (Документальный, 2009) [HDTVRip 720p, оригинал]
Рейтинг:
(голосов: 1)



[img]{THEME}/images/logopost.png[/img]



Дом / Home

Страна: Франция
Производство: Europa Corp., with sponsorship from PPR
Год выпуска: 2009
Жанр: Документалистика
Режиссёр: Ян Артюс-Бертран
Ведущие: Отсутствуют
Участники: Робер Воринг, Альберт Джекли, Джесика Лабрин и др...

Перевод: Оригинал (Английский)

Описание: Документальный фильм 2009 года, результат совместного творчества всемирно известного фотографа дикой природы Яна Артюса-Бертрана и режиссёра Люка Бессона

Доп. информация: Фильм почти полностью состоит из видов разных мест Земли с высоты птичьего полёта. Голос за кадром рассказывает об экологической катастрофе, угрожающей планете.

Качество: HDTVRip

Продолжительность: 01:33:17

Формат: MP4
Видео кодек: AVC
Аудио кодек: AAC
Свойства видео: 1280x720 (4:2:0), 24 fps, Advanced Video Codec, ~1996 Kbps avg, 0.090 bit/pixel
Свойства аудио: 44.1 KHz, Advanced Audio Codec, 2 ch, ~125 Kbps avg

"Media Info" ▼TextChroma subsampling : 4:2:0
Bit depth : 8 bits
Scan type : Progressive
Bits/(Pixel*Frame) : 0.090
Stream size : 1.30 GiB (94%)
Title : (C) 2007 Google Inc. v08.13.2007.
Encoded date : UTC 2009-09-26 22:59:51
Tagged date : UTC 2009-09-26 23:01:15

Audio
ID : 1
Format : AAC
Format/Info : Advanced Audio Codec
Format profile : LC
Codec ID : 40
Duration : 1h 33mn
Bit rate mode : Variable
Bit rate : 125 Kbps
Maximum bit rate : 250 Kbps
Channel(s) : 2 channels
Channel positions : Front: L R
Sampling rate : 44.1 KHz
Compression mode : Lossy
Stream size : 83.5 MiB (6%)
Title : (C) 2007 Google Inc. v08.13.2007.
Encoded date : UTC 2009-09-26 22:59:41
Tagged date : UTC 2009-09-26 23:01:15


4d0a8897025b8d22f8caed310a8b4805356d1fba[EN] Дом / Home (Документальный, 2009) [HDTVRip 720p, оригинал] [EN] Дом / Home (Документальный, 2009) [HDTVRip 720p, оригинал] " />

Аплоадер: Админ, дата: 26-10-2011, 01:24, торрент скачан: 359 раз

Понравилась раздача? Посмотрите эти:
  • NBA 2013-2014 / RS / Highlights [Баскетбол, 04.11.2013, WEB-DL HD/720p, MP4 ...
  • NHL 12/13 / Stanley Cup Playoffs / Highlights Playoff Edition [Хоккей, 03.0 ...
  • NBA Playoffs 2013 / Highlights Playoff Edition [Баскетбол, 05.05.2013, WEB ...
  • NHL 12/13 / Stanley Cup Playoffs / Highlights Playoff Edition [Хоккей, 05.0 ...
  • NHL 12/13 / Stanley Cup Playoffs / Highlights Playoff Edition [Хоккей, 06.0 ...
  • NBA Playoffs 2013 / Highlights Playoff Edition [Баскетбол, 06.05.2013, WEB ...
  • NBA Playoffs 2013 / Highlights Playoff Edition [Баскетбол, 07.05.2013, WEB ...
  • NHL 12/13 / Stanley Cup Playoffs / Highlights Playoff Edition [Хоккей, 07.0 ...
  • NHL 12/13 / Stanley Cup Playoffs / Highlights Playoff Edition [Хоккей, 09.0 ...
  • NBA Playoffs 2013 / Highlights Playoff Edition [Баскетбол, 08.05.2013, WEB ...
  • NBA Playoffs 2013 / Highlights Playoff Edition [Баскетбол, 10.05.2013, WEB ...
  • NHL 12/13 / Stanley Cup Playoffs / Highlights Playoff Edition [Хоккей, 10.0 ...
  • NBA Playoffs 2013 / Highlights Playoff Edition [Баскетбол, 11.05.2013, WEB ...
  • NHL 12/13 / Stanley Cup Playoffs / East / Semifinals / Game 1 / New York Ra ...
  • NHL 12/13 / Stanley Cup Playoffs / East / Semifinals / Game 1 / New York Ra ...
  • WWE Extreme Rules + Preshow [19.05.2013, Рестлинг, WEB-DL-HDTV/720p, MP4-MK ...
  • National Geographic: Запреты. Смена пола / Taboo. Sex Swap (Документальный, ...
  • Дом, свидание с планетой / Home (документальный, 2009) (ВDRip 720p) [профес ...
  • Поезда / HD Moods - Trains [2009 г., Документальный](BDRip, 720p,нетребуетс ...
  • Quincy Jones & Akon / Strawberry Letter 23 [2010, R&B, HDRip]
  • Сборник упражнений на мускулы тела / Muscle exercises // 84 из 84 [HDTV, от ...
  • Комплекс отжиманий (1-2 levels) / Chest workout "home version" (1-2 levels) ...
  • LeBron James 2012 Finals MVP [Баскетбол, 24.06.2012, HD, 720p, H.264, EN, H ...
  • Top 10 Plays of the 2012 NBA Finals [Баскетбол, 25.06.2012, HD, 720p, H.264 ...
  • Top 10 Dunks of the 2012 NBA Finals [Баскетбол, 25.06.2012, HD, 720p, H.264 ...
  • Информация
    Посетители, находящиеся в группе Гости, не могут оставлять комментарии к данной публикации.