вход на сайт

Имя пользователя :
Пароль :

Восстановление пароля Регистрация
Чужие из бездны / Aliens of the Deep (документальный, научно-популярный, 2005) [DVDRip-AVC, Профессиональный (многоголосый, закадровый)]
Рейтинг:
(голосов: 1)



[img]{THEME}/images/logopost.png[/img]



Чужие из бездны / Aliens of the Deep

¤Они жили миллионы лет до нас. И будут жить миллионы лет после.¤


Страна: США
Производство: Buena Vista Pictures, Earthship Productions, Walden Media
Год выпуска: 2005
Жанр: документальный, научно-популярный
Режиссёр: Джеймс Кэмерон, Стивен Куэйл / James Cameron, Steven Quale
Ведущие: отсутствует
Участники: Анатолий Сагалевич, Евгений Черняев, Виктор Нищета, Памела Конрад, Артур «Лонн» Лэйн, Др. Джим Чайлдресс, Диханна Фигероа, Майкл Генри, Кевин Хэнд, Майя Толстой

Перевод: Профессиональный (многоголосый, закадровый)

Описание
Джеймс Кэмерон, лауреат премии «Оскар» и автор знаменитого «Титаника», предлагает отправиться в удивительное путешествие к самому дну мирового океана. Зрители получают редкую возможность погрузиться вместе с экспедицией Кэмерона к подводным действующим вулканам и встретиться с необычными существами, которые живут в экстремальных условиях океанического дна. Создатели фильма предполагают, что формы жизни, которые существуют на дне океана — это то, что могут встретить космические экспедиции на других планетах вселенной.



Тех.Данные
Качество: DVDRip-AVC

Продолжительность: 01:35:26 часа

Формат: Matroska-MKV-
Видео кодек: AVC [email protected]
Аудио кодек: Audio Coding 3
Свойства видео: 720x432 (1,667), 25,00 fps, AVC ~2167 kbps avg, 0.279 bit/pixel
Свойства аудио: 48 kHz, Audio Coding 3, 2/0 (L,R) ch, ~640.00 kbps avg

Информация MediaInfo ▼TextОбщее
Уникальный идентификатор : 215514754044406916840239276333596891495 (0xA222A1BF6C5B9CAAA13A81D64DD35967)
Полное имя : E:DownloadsЧужие из бездны.2005.DVDRip-AVC.mkv
Формат : Matroska
Версия формата : Version 2
Размер файла : 1,91 Гбайт
Продолжительность : 1 ч. 35 м.
Общий поток : 2864 Кбит/сек
Дата кодирования : UTC 2012-06-03 07:44:44
Программа кодирования : mkvmerge v3.4.0 (Rapunzel) сборка от May 15 2010 09:38:20
Библиотека кодирования : libebml v0.8.0 + libmatroska v0.9.0

Видео
Идентификатор : 1
Формат : AVC
Формат/Информация : Advanced Video Codec
Профиль формата : [email protected]
Параметр CABAC формата : Да
Параметр ReFrames формата : 2 кадра
Идентификатор кодека : V_MPEG4/ISO/AVC
Продолжительность : 1 ч. 35 м.
Битрейт : 2167 Кбит/сек
Ширина : 720 пикселей
Высота : 432 пикселя
Соотношение сторон : 1,667
Частота кадров : 25,000 кадров/сек
Частота кадров в оригинале : 12,500 кадров/сек
Цветовое пространство : YUV
Субдискретизация насыщенности : 4:2:0
Битовая глубина : 8 бит
Тип развёртки : Прогрессивная
Бит/(Пиксели*Кадры) : 0.279
Размер потока : 1,44 Гбайт (76%)
Библиотека кодирования : x264 core 34 svn-285M
Язык : Russian
Default : Да
Forced : Нет

Аудио
Идентификатор : 2
Формат : AC-3
Формат/Информация : Audio Coding 3
Расширение режима : CM (complete main)
Идентификатор кодека : A_AC3
Продолжительность : 1 ч. 35 м.
Вид битрейта : Постоянный
Битрейт : 640 Кбит/сек
Каналы : 2 канала
Расположение каналов : Front: L R
Частота : 48,0 КГц
Битовая глубина : 16 бит
Метод сжатия : С потерями
Размер потока : 437 Мбайт (22%)
Default : Да
Forced : Нет

Меню
00:00:00.000 : en:Ch. 01 @ 00:00:00
00:05:02.280 : en:Ch. 02 @ 00:05:02
00:10:08.000 : en:Ch. 03 @ 00:10:08
00:16:03.040 : en:Ch. 04 @ 00:16:03
00:20:07.400 : en:Ch. 05 @ 00:20:07
00:28:40.000 : en:Ch. 06 @ 00:28:40
00:38:01.680 : en:Ch. 07 @ 00:38:01
00:44:09.280 : en:Ch. 08 @ 00:44:09
01:02:39.640 : en:Ch. 09 @ 01:02:39
01:16:00.880 : en:Ch. 10 @ 01:16:00
01:27:38.400 : en:Ch. 11 @ 01:27:38
01:32:55.000 : en:Ch. 12 @ 01:32:55
01:35:25.000 : en:Ch. 13 @ 01:35:25




2922916688ce9674cacf924a4b0927ad9cc5d6d5Чужие из бездны / Aliens of the Deep (документальный, научно-популярный, 2005) [DVDRip-AVC, Профессиональный (многоголосый, закадровый)] Чужие из бездны / Aliens of the Deep (документальный, научно-популярный, 2005) [DVDRip-AVC, Профессиональный (многоголосый, закадровый)] " />

Аплоадер: Админ, дата: 29-05-2013, 18:14, торрент скачан: 359 раз

Понравилась раздача? Посмотрите эти:
  • Солдаты напрокат (Сергей Клишин, Дмитрий Бышов, документальный, 2013) [HDTV ...
  • [NG] Комета века / Comet of the century (документальный, 2013) [HDTVRip-AVC ...
  • Мужчина: Инструкция по применению / Mens Manual (Ли Вон Сок, Комедия, 2013) ...
  • Филадельфия / Philadelphia (Джонатан Демме, Драма, 1993) [BDRip-AVC, Профес ...
  • Больше чем мёд / More Than Honey (документальный, 2012) [BDRip 720p, Профес ...
  • Голливудский мусор / Garbage (Филипп Волкен, драма, комедия, 2013) [HDTVRip ...
  • Полный путеводитель по пришельцам / The Definitive Guide to Aliens (выпуск ...
  • Рикошет / Ricochet (Ник Гомез, драма, детектив, 2011) [BDRip-AVC, Профессио ...
  • Чужие из бездны / Aliens of the Deep (документальный, научно-популярный, 20 ...
  • Лего: Звёздные войны - Награда бомбада / LEGO: Star wars - Вombad Bounty (П ...
  • [NG] Война львов / Lion Battle Zone (документальный, 2011) [HDTVRip-AVC, Пр ...
  • Новые технологии войны / The New Technology of War [Часть 1] (документальны ...
  • Новые технологии войны / The New Technology of War [Часть 2] (документальны ...
  • АББА: фильм / ABBA: The Movie (документальный, драма, музыка, 1977) [BDRip- ...
  • Дикий запад. Кино и реальность / The Wild And The West (документальный, 200 ...
  • Огонь Кристиана Лубутена 3D / FEU: Crazy Horse Paris (Бруно Халлин, Докумен ...
  • Суррогат / The Sessions (Бен Луин, Драма, 2012) [BDRip-AVC, Профессиональны ...
  • Чемпионат Англии 2012-2013 / 25-й тур / Обзор / Суббота / BBC Sport [2013 г ...
  • Иностранный легион / La cité (Ким Нгуйен / Kim Nguyen, драма, 2010) [DVDRip ...
  • Шёлк / Gui si (Чау-Бин Су, ужасы, фантастика, триллер, драма, 2006) [DVDRip ...
  • Образец 47 / Marvel One-Shot: Item 47 (Луис Д’Эспозито, короткометражка, фа ...
  • Сид, инструкция по выживанию / Surviving Sid (Гален Т. Чу, Карен Дишер, мул ...
  • [NG] Гитлеровские лагеря смерти / Hitlers G.I. Death Camp (документальный, ...
  • Отбой / Taps (Харольд Беккер, Драма, 1981) [DVDRip, Профессиональный (много ...
  • [NG] Тайны дикой природы Индии: Хищники джунглей / Secrets of Wild India: T ...
  • Информация
    Посетители, находящиеся в группе Гости, не могут оставлять комментарии к данной публикации.