вход на сайт

Имя пользователя :
Пароль :

Восстановление пароля Регистрация
Битва экстрасенсов // Сезон 14. Спец. выпуск 2 (Паранормальное шоу, 19.01.2014) [WebRip, Не требуется]
Рейтинг:
(голосов: 1)



[img]{THEME}/images/logopost.png[/img]



Битва экстрасенсов // Сезон 14. Спец. выпуск 2

Страна: Россия
Производство: ТНТ
Дата выхода в эфир: 19.01.2014
Жанр:Паранормальное шоу

Режиссёр: Олег Чаурс
Ведущие: Марат Башаров
Участники: Экстрасенсы 14-ой битвы

Перевод: Не требуется

Описание: Сегодня в выпуске самое интересное, шокирующее и невероятное.

Качество: WebRip

Продолжительность: 01:11:03

Формат: mp4
Видео кодек: AVC
Аудио кодек: AAC
Свойства видео: 768x432 (1.78:1), 25 fps, AVC, 1410 kbps avg, 0.17 bit/pixel
Свойства аудио: 48 kHz, AAC, 2 ch, ~128.00 kbps avg

MediaInfo ▼
G:Bitva.ekstrasensov.s.14. spec.vypusk.2.mp4
General
Complete name : G:Bitva.ekstrasensov.s.14. spec.vypusk.2.mp4
Format : MPEG-4
Format profile : Base Media
Codec ID : isom
File size : 785 MiB
Duration : 1h 11mn
Overall bit rate mode : Variable
Overall bit rate : 1 544 Kbps
Writing application : Lavf52.64.2
Video #1
ID : 1
Format : AVC
Format/Info : Advanced Video Codec
Format profile : [email protected]
Format settings, CABAC : Yes
Format settings, ReFrames : 8 frames
Codec ID : avc1
Codec ID/Info : Advanced Video Coding
Duration : 1h 11mn
Bit rate : 1 410 Kbps
Width : 768 pixels
Height : 432 pixels
Display aspect ratio : 16:9
Frame rate mode : Constant
Frame rate : 25.000 fps
Color space : YUV
Chroma subsampling : 4:2:0
Bit depth : 8 bits
Scan type : Progressive
Bits/(Pixel*Frame) : 0.170
Stream size : 716 MiB (91%)
Audio #2
ID : 2
Format : AAC
Format/Info : Advanced Audio Codec
Format profile : LC
Codec ID : 40
Duration : 1h 11mn
Bit rate mode : Variable
Bit rate : 128 Kbps
Channel(s) : 2 channels
Channel positions : Front: L R
Sampling rate : 44.1 KHz
Compression mode : Lossy
Delay relative to video : 200ms
Stream size : 65.1 MiB (8%)
Language : English



93e503e945a056c710732c56e40eca31a9dde44eБитва экстрасенсов // Сезон 14. Спец. выпуск 2 (Паранормальное шоу, 19.01.2014) [WebRip, Не требуется] Битва экстрасенсов // Сезон 14. Спец. выпуск 2 (Паранормальное шоу, 19.01.2014) [WebRip, Не требуется] " />

Аплоадер: Админ, дата: 19-01-2014, 17:17, торрент скачан: 359 раз

Понравилась раздача? Посмотрите эти:
  • Битва экстрасенсов // Сезон 14. Спец. выпуск 1 (Паранормальное шоу, 12.01.2 ...
  • Битва экстрасенсов // Сезон 14. Спец. выпуск 2 (Паранормальное шоу, 19.01.2 ...
  • Битва экстрасенсов // Сезон 14. Спец. выпуск 3 (Паранормальное шоу, 26.01.2 ...
  • Битва экстрасенсов // Сезон 14, Выпуск 10 (Паранормальное шоу, 24.11.2013) ...
  • Битва экстрасенсов // Сезон 14, Выпуск 10 (Паранормальное шоу, 24.11.2013) ...
  • Битва экстрасенсов // Сезон 14, Выпуск 11 (Паранормальное шоу, 01.12.2013) ...
  • Битва экстрасенсов // Сезон 14, Выпуск 12 (Паранормальное шоу, 08.12.2013) ...
  • Битва экстрасенсов // Сезон 14, Выпуск 9 (Паранормальное шоу, 17.11.2013) [ ...
  • Битва экстрасенсов // Сезон 14, Выпуск 9 (Паранормальное шоу, 17.11.2013) [ ...
  • Битва экстрасенсов // Сезон 14, Выпуск 7 (Паранормальное шоу, 03.11.2013) [ ...
  • Битва экстрасенсов // Сезон 14, Выпуск 7 (Паранормальное шоу, 03.11.2013) [ ...
  • Битва экстрасенсов // Сезон 14, Выпуск 8 (Паранормальное шоу, 10.11.2013) [ ...
  • Битва экстрасенсов // Сезон 14, Выпуск 8 (Паранормальное шоу, 10.11.2013) [ ...
  • Битва экстрасенсов // Сезон 14, Выпуск 3 (Паранормальное шоу, 06.10.2013) [ ...
  • Битва экстрасенсов // Сезон 14, Выпуск 3 (Паранормальное шоу, 06.10.2013) [ ...
  • Битва экстрасенсов // Сезон 14, Выпуск 4 (Паранормальное шоу, 13.10.2013) [ ...
  • Битва экстрасенсов // Сезон 14, Выпуск 4 (Паранормальное шоу, 13.10.2013) [ ...
  • Битва экстрасенсов // Сезон 14, Выпуск 5 (Паранормальное шоу, 20.10.2013) [ ...
  • Битва экстрасенсов // Сезон 14, Выпуск 5 (Паранормальное шоу, 20.10.2013) [ ...
  • Битва экстрасенсов // Сезон 14. Выпуск 5 (Паранормальное шоу, 20.10.2013) [ ...
  • Битва экстрасенсов // Сезон 14, Выпуск 6 (Паранормальное шоу, 27.10.2013) [ ...
  • Битва экстрасенсов // Сезон 14, Выпуск 6 (Паранормальное шоу, 27.10.2013) [ ...
  • Битва экстрасенсов. Спецвыпуски. (9 сезон: 1 выпуск) (Паранормальное шоу 20 ...
  • Битва экстрасенсов. Спецвыпуски. (9 сезон: 2 выпуск) (Паранормальное шоу 20 ...
  • Битва экстрасенсов. Спецвыпуски. (9 сезон: 3 выпуск) (Паранормальное шоу 20 ...
  • Информация
    Посетители, находящиеся в группе Гости, не могут оставлять комментарии к данной публикации.