вход на сайт

Имя пользователя :
Пароль :

Восстановление пароля Регистрация
Экстрасенсы ведут расследование // Сезон 3, Выпуск 2 (20) (Паранормальное шоу, 24.02.2012) [SATRip, Не требуется]
Рейтинг:
(голосов: 1)



[img]{THEME}/images/logopost.png[/img]



Экстрасенсы ведут расследование // Сезон-3, Выпуск-2 (20)

Страна: Россия
Производство: ТНТ
Дата выхода в эфир:24/02/2012
Жанр: Паранормальное шоу

Режиссёр: Олег Чаурс
Ведущие: Марат Башаров
Участники: Наталья Бантеева, Александр Литвин, Зулия Раджабова, Наталья и Максим Воротниковы, Алексей Похабов, Леонид Коновалов, Мехди, Турсуной и Лилия Хегай, Мохсен Нарузи, Зираддин Рзаев

Перевод: Не требуется

Описание: Документальный триллер-детектив с участием самых загадочных экстрасенсов России!
Это не шоу, а демонстрация реальной мощи ясновидения. Участники и победители нескольких сезонов «Битвы экстрасенсов» приводят документальные доказательства того, как паранормальные способности способны помочь людям. В этом цикле экстрасенсы находят пропавших родственников и угнанные автомобили, избавляют жилище от привидений и возвращают супругов в семьи.
В фильмах создается «эффект присутствия» - зритель выступает очевидцем всех этапов процесса расследования. Комментарии свидетелей – следователей, самих героев событий – подтверждают правдоподобность происходящего на экране. А особенный интерес вызывает то, как люди со сверхвозможностями существуют в своих привычных условиях жизни и работы.

Качество: SATRip
Продолжительность: 00:47:30

Формат: AVI
Видео кодек: XviD
Аудио кодек: MP3
Свойства видео: 640x480 (1.33:1), 25 fps, XviD build 50 ~1400 kbps avg, 0.18 bit/pixel
Свойства аудио: 48 kHz, MPEG Layer 3, 2 ch, ~128.00 kbps avg

MediaInfo: ▼TextОбщее
Кол-во : 278
Кол-во потоков такого типа : 1
Тип потока : General
Тип потока : Общее
Идентификатор типа потока : 0
Inform : AVI: 526 Мбайт, 47 м.
Кол-во видеопотоков : 1
Кол-во аудиопотоков : 1
Video_Format_List : MPEG-4 Visual
Video_Format_WithHint_List : MPEG-4 Visual (XviD)
Видеокодеки : XviD
Audio_Format_List : MPEG Audio
Audio_Format_WithHint_List : MPEG Audio (MP3)
Аудиокодеки : MPEG-1 Audio layer 3
Полное имя : D:РазвлеченияФильмыEkstrasensy.vedut.rassledovanie.20.2012.SATRip.[bitva-ekstrasensov.tv].avi
Имя папки : D:РазвлеченияФильмы
Имя файла : Ekstrasensy.vedut.rassledovanie.20.2012.SATRip.[bitva-ekstrasensov.tv]
Расширение : avi
Формат : AVI
Формат : AVI
Формат/Информация : Audio Video Interleave
Формат/Используется в : avi
Коммерческое название : AVI
Интернет-тип носителя : video/vnd.avi
Чередующаяся : Yes
Кодек : AVI
Кодек : AVI
Кодек/Информация : Audio Video Interleave
Кодек/Используется в : avi
Размер файла : 551425692
Размер файла : 526 Мбайт
Размер файла : 526 Мбайт
Размер файла : 526 Мбайт
Размер файла : 526 Мбайт
Размер файла : 525,9 Мбайт
Продолжительность : 2867320
Продолжительность : 47 м.
Продолжительность : 47 м. 47 с. 320 мс.
Продолжительность : 47 м.
Продолжительность : 00:47:47.320
Общий поток : 1538511
Общий поток : 1539 Кбит/сек
Размер потока : 3486651
Размер потока : 3,33 Мбайт (1%)
Размер потока : 3 Мбайт
Размер потока : 3,3 Мбайт
Размер потока : 3,33 Мбайт
Размер потока : 3,325 Мбайт
Размер потока : 3,33 Мбайт (1%)
Пропорции потока : 0.00632
Дата файла : UTC 2012-02-24 12:57:44.682
Дата файла (местная) : 2012-02-24 18:57:44.682
Дата изменения файла : UTC 2012-02-24 13:33:12.576
Дата изменения файла (местная) : 2012-02-24 19:33:12.576
Библиотека кодирования : VirtualDub build 32706/release
Библиотека кодирования : VirtualDub build 32706/release

Видео
Кол-во : 205
Кол-во потоков такого типа : 1
Тип потока : Video
Тип потока : Видео
Идентификатор типа потока : 0
Inform : 1401 Кбит/сек, 640*480 (4:3), в 25,000 кадров/сек, MPEG-4 Visual (XviD) (Advanced [email protected]) (BVOP2)
Идентификатор : 0
Идентификатор : 0
Формат : MPEG-4 Visual
Коммерческое название : MPEG-4 Visual
Профиль формата : Advanced [email protected]
Настройки формата : BVOP2
Параметр BVOP формата : 2
Параметр BVOP формата : 2
Параметр QPel формата : No
Параметр QPel формата : Нет
Параметр GMC формата : 0
Параметр GMC формата : Без точки перехода
Параметр матрицы формата : D
4a102329fa6e9ad967f75b2b6b356214e428e592Экстрасенсы ведут расследование // Сезон 3, Выпуск 2 (20) (Паранормальное шоу, 24.02.2012) [SATRip, Не требуется] Экстрасенсы ведут расследование // Сезон 3, Выпуск 2 (20) (Паранормальное шоу, 24.02.2012) [SATRip, Не требуется] " />

Аплоадер: Админ, дата: 24-02-2012, 20:14, торрент скачан: 359 раз

Понравилась раздача? Посмотрите эти:
  • Экстрасенсы ведут расследование // Сезон 3, Выпуск 26 (44) (Паранормальное ...
  • Экстрасенсы ведут расследование // Сезон 3 Выпуск 1 (19) (Паранормальное шо ...
  • Три банана (Михаил Ботов, Мультфильм, 1971) [SATRip, Не требуется]
  • Экстрасенсы ведут расследование // Сезон 3, Выпуск 3 (21) (Паранормальное ш ...
  • Экстрасенсы ведут расследование // Сезон 3, Выпуск 4 (22) (Паранормальное ш ...
  • Экстрасенсы ведут расследование // Сезон 3, Выпуск 5 (23) (Паранормальное ш ...
  • Экстрасенсы ведут расследование // Сезон 3, Выпуск 6 (24) (Паранормальное ш ...
  • Рассмеши комика // 3 сезон, 2 выпуск (ТВ-Шоу, Юмор, 24/03/2012) [SATRip, Ор ...
  • Экстрасенсы ведут расследование // Сезон 3, Выпуск 7 (25) (Паранормальное ш ...
  • Экстрасенсы ведут расследование // Сезон 3, Выпуск 8 (26) (Паранормальное ш ...
  • Экстрасенсы ведут расследование // Сезон 3, Выпуск 9 (27) (Паранормальное ш ...
  • Экстрасенсы ведут расследование // Сезон 3, Выпуск 10 (из 28) (Паранормальн ...
  • Экстрасенсы ведут расследование // Сезон 3, Выпуск 11 (29) (Паранормальное ...
  • Экстрасенсы ведут расследование // Сезон 3, Выпуск 12 (30) (Паранормальное ...
  • Экстрасенсы ведут расследование // Сезон 3, Выпуск 13 (31) (Паранормальное ...
  • Экстрасенсы ведут расследование // Сезон 3, Выпуск 14 (32) (Паранормальное ...
  • Экстрасенсы ведут расследование // Сезон 3, Выпуск 15 (33) (Паранормальное ...
  • Экстрасенсы ведут расследование // Сезон 3, Выпуск 16 (34) (Паранормальное ...
  • Экстрасенсы ведут расследование // Сезон 3, Выпуск 17 (35) (Паранормальное ...
  • Экстрасенсы ведут расследование // Сезон 3, Выпуск 18 (36) (Паранормальное ...
  • Информация
    Посетители, находящиеся в группе Гости, не могут оставлять комментарии к данной публикации.