вход на сайт

Имя пользователя :
Пароль :

Восстановление пароля Регистрация
Игра в поддавки (аналитический, 2013) [WEBRip, не требуется]
Рейтинг:
(голосов: 1)



[img]{THEME}/images/logopost.png[/img]



Игра в поддавки

Страна: Россия
Производство: Неизвестно
Год выпуска: 2013
Жанр: Аналитический

Режиссёр: Неизвестен
Ведущие: Неизвестен
Участники: Погос Акопов, Евгений Примаков,Алексей Подцероб, Анатолий Егорин, Владимир Чамов, Леонид Ивашов
Перевод: Не требуется

Описание: Фильм "Игра в поддавки" о медведевском предательстве интересов России во время событий в Ливии, в котором роль главного эксперта - отведена Евгению Примакову.
Содержалась ли в действиях Медведева накануне и во время натовской агрессии против Каддафи государственная измена или нет, сказать сложно, но вот многомиллиардный ущерб от сорванных Медведевым военных и гражданских контрактов отрицать теперь, после фильма, невозможно.
Ну и особая тема - новый передел мира, при котором Россия постепенно загоняется Западом в список стран "оси Зла". В фильме проведены параллели между Ливией и Россией, от реальности не скроешься: мы - следующие после Ирана . Сценариев масса: от поддержки "демократического движения" на вспыхнувшем Северном Кавказе - до войны за неподеленные ресурсы Арктики.

Качество: WEBRip

Продолжительность: 01:17:21

Формат: AVI
Видео кодек: XviD
Аудио кодек: MP3
Свойства видео: 640x368 (1.74:1), 25 fps, XviD MPEG-4 ~951 kbps avg, 0.16 bit/pixel
Свойства аудио: 44.100 kHz, MPEG Layer 3, 2 ch, ~128.00 kbps avg

"MediaInfo" ▼Формат : AVI
Формат/Информация : Audio Video Interleave
Размер файла : 603 Мбайт
Продолжительность : 1 ч. 17 м.
Общий поток : 1090 Кбит/сек
Программа кодирования : TMPGEnc Video Mastering Works 5 Version. 5.0.6.38
Библиотека кодирования : TMPGEnc Video Mastering Works 5 Version. 5.0.6.38

Видео
Идентификатор : 0
Формат : MPEG-4 Visual
Профиль формата : Advanced [email protected]
Параметр BVOP формата : 2
Параметр QPel формата : Нет
Параметр GMC формата : Без точки перехода
Параметр матрицы формата : Default (MPEG)
Режим смешивания : Сжатый битовый поток
Идентификатор кодека : XVID
Идентификатор кодека/Подсказка : XviD
Продолжительность : 1 ч. 17 м.
Битрейт : 949 Кбит/сек
Ширина : 640 пикселей
Высота : 368 пикселей
Соотношение сторон : 1,739
Частота кадров : 25,000 кадров/сек
Цветовое пространство : YUV
Субдискретизация насыщенности : 4:2:0
Битовая глубина : 8 бит
Тип развёртки : Прогрессивная
Метод сжатия : С потерями
Бит/(Пиксели*Кадры) : 0.161
Размер потока : 525 Мбайт (87%)
Библиотека кодирования : XviD 64

Аудио
Идентификатор : 1
Формат : MPEG Audio
Версия формата : Version 1
Профиль формата : Layer 3
Режим : Joint stereo
Расширение режима : MS Stereo
Идентификатор кодека : 55
Идентификатор кодека/Подсказка : MP3
Продолжительность : 1 ч. 17 м.
Вид битрейта : Постоянный
Битрейт : 128 Кбит/сек
Каналы : 2 канала
Частота : 44,1 КГц
Метод сжатия : С потерями
Размер потока : 70,8 Мбайт (12%)
Выравнивание : Соединение по промежуткам
Продолжительность промежутка : 40 мс. (1,00 видеокадр)
Время предзагрузки промежутка : 391 мс.




1e886f812760450782c8fcab5f54c82070f06fc3Игра в поддавки (аналитический, 2013) [WEBRip, не требуется] Игра в поддавки (аналитический, 2013) [WEBRip, не требуется] " />

Аплоадер: Админ, дата: 12-03-2013, 18:40, торрент скачан: 359 раз

Понравилась раздача? Посмотрите эти:
  • Чемпионат Германии 2013-14 / 3-й тур / Байер - Боруссия М / НТВ+ [Футбол, 2 ...
  • Чемпионат Германии 2013-14 / 2-я Бундеслига / 1-й тур / Санкт-Паули - Мюнхе ...
  • Чемпионат Германии 2013-14 / 2-я Бундеслига / 2-й тур / Кайзерслаутерн - Ин ...
  • Лига Европы 2013-14 / 3-й кв.раунд / Первый матч / Мазервелл (Шотландия) - ...
  • Кубок Германии 2013-14 / 1/32 финала / Вильгельмсхафен - Боруссия Д / Спорт ...
  • Чемпионат Германии 2013-14 / 1-й тур / Превью / НТВ+ [Футбол, 09.08.2013, X ...
  • Чемпионат Франции 2013-14 / 2-й тур / Сошо - Лион / Cпорт 1 HD [Футбол, 16. ...
  • Континуум: Вебсериал / Continuum Web Series // Сезон 1, эпизоды с 1 по 9 (и ...
  • Чемпионат Италии 2012-13 | 8-й тур | Интер — Катания | НТВ+ [Футбол, 21.10. ...
  • Кубок Италии 2012-13 / 1/2 финала / 1-й матч / Рома - Интер / ТК Футбол [Фу ...
  • Вечерний Ургант // Сезон 2. Выпуск 56 (ТВ-шоу, 11.12.2012) [SATRip, Не треб ...
  • Бог любви / God of Love (Люк Мэзени, Короткометражка, фэнтези, комедия, мел ...
  • Вечерний Ургант // Сезон 2. Выпуск 62 (ТВ-шоу, 19.12.2012) [SATRip, Не треб ...
  • Вечерний Ургант // Сезон 2. Выпуск 63 (ТВ-шоу, 20.12.2012) [SATRip, Не треб ...
  • Кейси Джонс / Casey Jones (Иларион Бэнкс, Короткометражка, фэнтези, боевик, ...
  • Вечерний Ургант // Сезон 2. Выпуск 64 (ТВ-шоу, 21.12.2012) [SATRip, Не треб ...
  • Вечерний Ургант // Сезон 2. Выпуск 66 (ТВ-шоу, 25.12.2012) [SATRip, Не треб ...
  • Вечерний Ургант // Сезон 2. Выпуск 68 (ТВ-шоу, 27.12.2012) [SATRip, Не треб ...
  • Дорога на... / Road to (Таисия Игуменцева, Комедия, короткометражный, 2011) ...
  • Светлячок. Воссоединение Коричневых плащей к 10 годовщине / Firefly 10th An ...
  • Отдам котят в хорошие руки (Александр Баршак, комедия, 2012)[SATRip, не тре ...
  • Детский душ / Baby Shower (Pablo Illanes, Ужасы, 2011) [DVDRip, Любительски ...
  • Развод по-русски. Выпуск №78. Трагедии звездных семей (Документальный,телеп ...
  • Чемпионат Италии 2012-13 | 11-й тур | Ювентус - Интер | НТВ+ [Футбол, 03.11 ...
  • Schiller / Mitternacht [2010, Ambient, WebRip]
  • Информация
    Посетители, находящиеся в группе Гости, не могут оставлять комментарии к данной публикации.