вход на сайт

Имя пользователя :
Пароль :

Восстановление пароля Регистрация
Принуждение к прививке / Impf-Zwang (документальный, 2012) [HD 720p, Профессиональный (одноголосый, закадровый)]
Рейтинг:
(голосов: 1)



[img]{THEME}/images/logopost.png[/img]



Принуждение к прививке / Impf-Zwang


Страна: Германия
Производство: Panorama-Film
Год выпуска: 2012
Жанр: документальный
Режиссёр: Юрген Майер
Ведущие: отсутствует
Участники: Юрген Майер, Юлиане Захер, Анита Петек, Рамона Крист, Даниэль Траппич

Перевод: Профессиональный (одноголосый, закадровый)

Описание
Документальный фильм Юргена Майера смертный приговор прививкам. Вакцины сеют смерть не только по России, но и по Европе. Фармацевтическая индустрия и система здравоохранения под пристальным взглядом. Узаконенная принудительная вакцинация приводит к летальным исходам или инвалидности. Заключения известных специалистов и свидетельство жертв вакцинации как изощренному виду геноцида в проекте «Золотой миллиард».


Тех.Данные
Качество: HD 720p

Продолжительность: 00:43:06 часа

Формат: MPEG-4
Видео кодек: AVC [email protected]
Аудио кодек: Advanced Audio Codec
Свойства видео: 1280x720 (16:9), 25 fps, AVC ~1507 kbps avg, 0.065 bit/pixel
Свойства аудио: 48 kHz, AAC, 2/0 (L,R) ch, ~192.00 kbps avg

Информация MediaInfo ▼TextОбщее
Полное имя : E:DownloadsПринуждение к прививке.2012.mp4
Формат : MPEG-4
Профиль формата : Base Media / Version 2
Идентификатор кодека : mp42
Размер файла : 524 Мбайт
Продолжительность : 43 м.
Режим общего битрейта : Переменный
Общий поток : 1701 Кбит/сек
Дата кодирования : UTC 2013-04-21 13:44:09
Дата пометки : UTC 2013-04-21 13:44:09
gsst : 0
gstd : 2586353
gssd : B4A7DDA44MH1369122245312647
gshh : r4---sn-4g57kues.c.youtube.com

Видео
Идентификатор : 1
Формат : AVC
Формат/Информация : Advanced Video Codec
Профиль формата : [email protected]
Параметр CABAC формата : Да
Параметр ReFrames формата : 1 кадр
Параметр GOP формата : M=1, N=60
Идентификатор кодека : avc1
Идентификатор кодека/Информация : Advanced Video Coding
Продолжительность : 43 м.
Битрейт : 1507 Кбит/сек
Максимальный битрейт : 7756 Кбит/сек
Ширина : 1280 пикселей
Высота : 720 пикселей
Соотношение сторон : 16:9
Режим частоты кадров : Постоянный
Частота кадров : 25,000 кадров/сек
Цветовое пространство : YUV
Субдискретизация насыщенности : 4:2:0
Битовая глубина : 8 бит
Тип развёртки : Прогрессивная
Бит/(Пиксели*Кадры) : 0.065
Размер потока : 464 Мбайт (89%)
Дата пометки : UTC 2013-04-21 13:46:58

Аудио
Идентификатор : 2
Формат : AAC
Формат/Информация : Advanced Audio Codec
Профиль формата : LC
Идентификатор кодека : 40
Продолжительность : 43 м.
Вид битрейта : Переменный
Битрейт : 192 Кбит/сек
Максимальный битрейт : 203 Кбит/сек
Каналы : 2 канала
Расположение каналов : Front: L R
Частота : 44,1 КГц
Метод сжатия : С потерями
Размер потока : 59,2 Мбайт (11%)
Заголовок : IsoMedia File Produced by Google, 5-11-2011
Дата кодирования : UTC 2013-04-21 13:45:54
Дата пометки : UTC 2013-04-21 13:46:58




e7f9c59c0b969fb72554e64fe54056fb35452f6bПринуждение к прививке / Impf-Zwang (документальный, 2012) [HD 720p, Профессиональный (одноголосый, закадровый)] Принуждение к прививке / Impf-Zwang (документальный, 2012) [HD 720p, Профессиональный (одноголосый, закадровый)] " />

Аплоадер: Админ, дата: 22-05-2013, 11:26, торрент скачан: 359 раз

Понравилась раздача? Посмотрите эти:
  • Hurts / Somebody to Die For [2013, Pop, WEBRip]
  • After School Red / In The Night Sky [2011, KPop, Master]
  • Grasu XXL feat. Ami / Deja Vu [2013, Rap, Hip-Hop, Master]
  • Анита Цой / Береги меня [2013, Pop, HDRip]
  • Elvira T / Море [2013, Pop, HDRip]
  • Elvira T / Одержима [2013, Pop, HDRip]
  • Mario feat. Nicki Minaj / Somebody Else [2013, Hip-Hop, Rap, MasterRip]
  • Русский Размер / До тебя [2012, Pop, HDRip]
  • Герои / Километры [2012, Pop, HDRip]
  • Герои / Закаты алые [2012, Pop, WebRip]
  • Miranda Cosgrove / Dancing Crazy [2011, Pop, WEB-DLRip 720p]
  • Madcon / The Signal [2013, Hip-Hop, HDRip]
  • Yandel / Hable De Ti (La Leyenda) [2013, Dance, Reggaeton, Master]
  • Avril Lavigne / Smile [2011, Pop, HDRip]
  • Charli XCX / Superlove [2013, Pop, Master]
  • Christina Aguilera / Not Myself Tonight [2010, Dance, Pop, Master]
  • Ariana Grande - ft. Mac Miller / The Way [2013, Pop, WEB-DLRip 1080p]
  • Чемпионат Англии 2012-2013 / 18-й тур / Челси - Астон Вилла / Спорт 1 [23.1 ...
  • E-40 & Too Short Dump Truck Feat. Travis Porter/ Function Music [2012, Rap| ...
  • Нонито Донэйр - Хорхе Арсе / Nonito Donaire vs Jorge Arce [Бокс, 15.12.2012 ...
  • Лион / День за днем (Интро) [2012, Rap, WebRip]
  • Guf / Hip-Hop All Stars 2012. Гуф Live. [2012, Rap,WebRip]
  • Қайрат Нұртас / Ол сен емес [2012, Pop, WebRip ]
  • [Трейлер] Ходячие Мертвецы / The Walking Dead [3-й сезон] (Эрнест Р. Дикер ...
  • Птаха, Musa, Док / Миф [2012, Rap, WEBRip]
  • Информация
    Посетители, находящиеся в группе Гости, не могут оставлять комментарии к данной публикации.