вход на сайт

Имя пользователя :
Пароль :

Восстановление пароля Регистрация
1993. Осень в огне (документальный, 2013) [HDTVRip-AVC, не требуется]
Рейтинг:
(голосов: 1)



[img]{THEME}/images/logopost.png[/img]



1993. Осень в огне


Страна: Россия
Производство: Первый канал
Год выпуска: 2013
Жанр: документальный
Режиссёр:Ирина Голубева
Ведущие: отсутствует
Участники: С.Шахрай, В.Осколков, А.Коржаков, В.Брагин, С.Лысюк и др.участники октябрьских событий...

Перевод: не требуется

Описание
Так могло выглядеть начало новой войны в России - гражданской, когда свои убивают своих. Москва, Останкино, 3 октября 1993 года.Кто тогда спровоцировал кровавую бойню, которая могла перерасти в общенациональный пожар? Фильм - о событиях осени 1993 года.

Реформы, объявленные первым всенародно избранным президентом России Борисом Ельциным, не приносят быстрых результатов. В столице и других промышленных центрах его позиции остаются еще прочными, но в регионах нарастает недовольство. Верховный Совет саботирует решения президента, вносит в Конституцию удобные для себя поправки. В стране складывается юридическое и фактическое двоевластие.

В память обо всех погибших рядом со зданием телецентра установили поминальный крест. В годовщину событий сюда приносят цветы и скорбят о жертвах, не разделяя их на своих и чужих. Никто из зачинщиков беспорядков, многие из которых здравствуют до сих пор, не признается сегодня, что штурм телецентра в октябре 93-го в Москве был бессмысленным, а людские жертвы напрасными.


Тех.Данные
Качество: HDTVRip-AVC
Продолжительность: 00:42:59 часа

Формат: Matroska-MKV-
Видео кодек: Advanced Video Codec
Аудио кодек: Audio Coding 3
Свойства видео: 1024x576 (16:9), 25 fps, AVC ~1800 kbps avg, 0.122 bit/pixel
Свойства аудио: 48 kHz, Audio Coding 3, 2/0 (L,R) ch, ~192.00 kbps avg

Информация MediaInfo ▼TextОбщее
Уникальный идентификатор : 186875760411416341477245937945787538109 (0x8C96F6585A2C3559B58394BCBFE89ABD)
Полное имя : E:Downloads1993. Осень в огне.2013.HDTVRip-AVC.mkv
Формат : Matroska
Версия формата : Version 2
Размер файла : 744 Мбайт
Продолжительность : 52 м.
Общий поток : 1994 Кбит/сек
Дата кодирования : UTC 2013-10-07 11:10:15
Программа кодирования : mkvmerge v3.0.0 (Hang up your Hang-Ups) built on Jan 6 2010 22:49:38
Библиотека кодирования : libebml v0.7.9 + libmatroska v0.8.1

Видео
Идентификатор : 1
Формат : AVC
Формат/Информация : Advanced Video Codec
Профиль формата : High [email protected]
Параметр CABAC формата : Да
Параметр ReFrames формата : 5 кадров
Идентификатор кодека : V_MPEG4/ISO/AVC
Продолжительность : 52 м.
Битрейт : 1800 Кбит/сек
Ширина : 1024 пикселя
Высота : 576 пикселей
Соотношение сторон : 16:9
Частота кадров : 25,000 кадров/сек
Цветовое пространство : YUV
Субдискретизация насыщенности : 4:2:0
Битовая глубина : 10 бит
Тип развёртки : Прогрессивная
Бит/(Пиксели*Кадры) : 0.122
Размер потока : 658 Мбайт (88%)
Библиотека кодирования : x264 core 130 r2273 b3065e6
Настройки программы : cabac=1 / ref=5 / deblock=1:-2:-2 / analyse=0x3:0x111 / me=umh / subme=9 / psy=1 / psy_rd=0.00:0.10 / mixed_ref=1 / me_range=32 / chroma_me=1 / trellis=2 / 8x8dct=1 / cqm=0 / deadzone=21,11 / fast_pskip=0 / chroma_qp_offset=-1 / threads=6 / lookahead_threads=1 / sliced_threads=0 / nr=0 / decimate=1 / interlaced=0 / bluray_compat=0 / constrained_intra=0 / bframes=5 / b_pyramid=2 / b_adapt=2 / b_bias=0 / direct=3 / weightb=1 / open_gop=0 / weightp=2 / keyint=250 / keyint_min=25 / scenecut=40 / intra_refresh=0 / rc_lookahead=50 / rc=2pass / mbtree=1 / bitrate=1800 / ratetol=1.0 / qcomp=0.60 / qpmin=0 / qpmax=81 / qpstep=4 / cplxblur=20.0 / qblur=0.5 / ip_ratio=1.40 / aq=1:1.00
Default : Нет
Forced : Нет

Аудио
Идентификатор : 2
Формат : AC-3
Формат/Информация : Audio Coding 3
Расширение режима : CM (complete main)
Идентификатор кодека : A_AC3
Продолжительность : 52 м.
Вид битрейта : Постоянный
Битрейт : 192 Кбит/сек
Каналы : 2 канала
Расположение каналов : Front: L R
Частота : 48,0 КГц
Битовая глубина : 16 бит
Метод сжатия : С потерями
Размер потока : 71,7 Мбайт (10%)
Default : Да
Forced : Нет



fa80dfe2196a316a96909620c1c7b06117a3598c1993. Осень в огне (документальный, 2013) [HDTVRip-AVC, не требуется] 1993. Осень в огне (документальный, 2013) [HDTVRip-AVC, не требуется] " />

Аплоадер: Админ, дата: 7-10-2013, 17:32, торрент скачан: 359 раз

Понравилась раздача? Посмотрите эти:
  • [NG] Комета века / Comet of the century (документальный, 2013) [HDTVRip-AVC ...
  • [NG] Тайная жизнь хищников / Secret Life of Predators // Эпизод 1 по 4 (из ...
  • [BBC] Как устроена природа / BBC. How Nature Works // Эпизод 1 по 4 (из 4) ...
  • Усатый нянь (Владимир Грамматиков, комедия, семейный, 1977) [DVDRip-AVC, Не ...
  • Марафон (Карен Оганесян, комедия, 2013) [DVDRip-AVC, Не требуется]
  • Они сражались за Родину (полная версия) (Сергей Бондарчук, драма, военный, ...
  • Филадельфия / Philadelphia (Джонатан Демме, Драма, 1993) [BDRip-AVC, Профес ...
  • Башня / The Tower (Чи-хун Ким, драма, 2012) [BDRip-AVC, Любительский (двухг ...
  • Обман Обамы / The Obama Deception: The Mask Comes Off (Документальный, 2009 ...
  • Голливудский мусор / Garbage (Филипп Волкен, драма, комедия, 2013) [HDTVRip ...
  • Великая Отечественная Война, Восточный фронт / World War II, The Eastern fr ...
  • [BBC] BBC: Безжалостные убийцы / BBC: Ultimate Killers // Выпуск 1 по 3 (из ...
  • [BBC] BBC: Змеи / Wildlife Special. Serpent (Документальный, 2003) [DVDRip- ...
  • [NG] На крючке: Ловля монстров. Гигантский скат / Monster Fish. Giant Sting ...
  • [NG] Война львов / Lion Battle Zone (документальный, 2011) [HDTVRip-AVC, Пр ...
  • Новые технологии войны / The New Technology of War [Часть 1] (документальны ...
  • Новые технологии войны / The New Technology of War [Часть 2] (документальны ...
  • Даю год / I Give It a Year (Дэн Мазер, мелодрама, комедия, 2012) [BDRip-AVC ...
  • Дикий запад. Кино и реальность / The Wild And The West (документальный, 200 ...
  • Мертвое поле (Александр Аравин, Драма, военный, 2006) [DVDRip-AVC, Оригинал ...
  • Чемпионат Англии 2012-2013 / 25-й тур / Обзор / Суббота / BBC Sport [2013 г ...
  • Чемпионат Англии 2012-2013 / 25-й тур / Обзор / Воскресенье / BBC Sport [20 ...
  • Лоракс: Серенада / The Lorax: Serenade (Кайл Балда, мультфильм, комедия, му ...
  • [NG] Гитлеровские лагеря смерти / Hitlers G.I. Death Camp (документальный, ...
  • Чемпионат Англии 2012-2013 / 19-й тур / Обзор / Среда / BBC Sport [2012 г., ...
  • Информация
    Посетители, находящиеся в группе Гости, не могут оставлять комментарии к данной публикации.