вход на сайт

Имя пользователя :
Пароль :

Восстановление пароля Регистрация
Специальный корреспондент. Цитадель 9-11(общественно-политический, 11.09.2011) [SATRip, Профессиональный (многоголосый, закадровый) ]
Рейтинг:
(голосов: 1)



[img]{THEME}/images/logopost.png[/img]



Специальный корреспондент. Цитадель 9/11

Страна: Россия
Производство: Телеканал "РОССИЯ"
Год выпуска: 11.09.11
Жанр: общественно-политический
Ведущий: Евгений Попов
Режиссер: Сергей.Н
Участники: Евгений Попов и др..
Перевод: Профессиональный (многоголосый, закадровый)

Описание: 10 лет назад в Нью-Йорке, Арлингтоне и в небе над Шенксвилем погибли 2977 человек. Кто на самом деле стоит за страшной атакой? Почему миллионы людей не верят официальной версии? Кто заработал 5 миллиардов долларов на трагедии, и почему комиссия 9/11 забыла о крушении здания №7 Всемирного торгового центра? Сколько времени необходимо военным, чтобы перехватить захваченный самолет? Зачем Дик Чейни в августе 2001 года проводил национальные антитеррористические учения и где находился Доналд Рамсфелд во время взрыва в Пентагоне? Почему четыре черных ящика боингов уничтожены, а бумажный паспорт террориста найден невредимым? Что общего между нападением на Перл-Харбор и терактами 11 сентября? И зачем американским неоконсерваторам нужен был "Новый Перл-Харбор"?
Евгений Попов встретился с выжившими, очевидцами, родственниками погибших и учеными, которые годами анализировали 567 страниц официального доклада, но ответов на свои вопросы так и не нашли.
Журналисты телеканала "Россия" - единственные российские журналисты, побывавшие на месте, где стояли башни-близнецы, и на верхнем, сорок восьмом, этаже нового Всемирного торгового центра.


Продолжительность: 00:41:59

Качество: SATRip
Формат: AVI
Видео кодек: XviD
Аудио кодек:MP3
Свойства видео: 704x416(4:2:0), 25 fps, ~1 401 kbps avg, 0.191 bit/pixel
Свойства аудио: 48,0 kHz, MPEG Layer 3, 2 ch, ~128.00 kbps avg


Mediainfo ▼General
Complete name : D:DownLoadTorrentСпециальный корреспондент. Цитадель 9-11.avi
Format : AVI
Format/Info : Audio Video Interleave
File size : 462 MiB
Duration : 41mn 59s
Overall bit rate : 1 539 Kbps
Writing library : VirtualDub build 32842/release
Video
ID : 0
Format : MPEG-4 Visual
Format profile : Advanced [email protected]
Format settings, BVOP : Yes
Format settings, QPel : No
Format settings, GMC : No warppoints
Format settings, Matrix : Default (MPEG)
Codec ID : XVID
Codec ID/Hint : XviD
Duration : 41mn 59s
Bit rate : 1 401 Kbps
Width : 704 pixels
Height : 416 pixels
Display aspect ratio : 1.692
Frame rate : 25.000 fps
Color space : YUV
Chroma subsampling : 4:2:0
Bit depth : 8 bits
Scan type : Progressive
Bits/(Pixel*Frame) : 0.191
Stream size : 421 MiB (91%)
Writing library : XviD 1.2.1 (UTC 2008-12-04)
Audio
ID : 1
Format : MPEG Audio
Format version : Version 1
Format profile : Layer 3
Mode : Joint stereo
Mode extension : MS Stereo
Codec ID : 55
Codec ID/Hint : MP3
Duration : 41mn 59s
Bit rate mode : Constant
Bit rate : 128 Kbps
Channel(s) : 2 channels
Sampling rate : 48.0 KHz
Stream size : 38.4 MiB (8%)
Alignment : Split accross interleaves
Interleave, duration : 40 ms (1.00 video frame)
Interleave, preload duration : 500 ms
Writing library : LAME3.98r
Encoding settings : -m j -V 4 -q 2 -lowpass 17 -b 128




ceeb7b2aa7820098e1ad3da3409a10c0f917510dСпециальный корреспондент. Цитадель 9-11(общественно-политический, 11.09.2011) [SATRip, Профессиональный (многоголосый, закадровый) ] Специальный корреспондент. Цитадель 9-11(общественно-политический, 11.09.2011) [SATRip, Профессиональный (многоголосый, закадровый) ] " />

Аплоадер: Админ, дата: 13-09-2011, 16:55, торрент скачан: 359 раз

Понравилась раздача? Посмотрите эти:
  • Погнали! / Getaway (Кортни Соломон, Боевик,Криминал, 2013) [HDRip, Професси ...
  • Ночь тамплиера / Night of the Templar (Пол Сэмпсон, Ужасы, фантастика, боев ...
  • Доля ангелов / The Angels Share (Кен Лоуч, драма, комедия, 2012) [HDRip, Пр ...
  • Захват / Carjacked (Джон Бонито, триллер, 2011)[BDRip, Профессиональный (мн ...
  • Формула 1 2011 / Этап 17 из 19 / Гран-При Индии / Гонка / Спорт 1 [30.10.20 ...
  • Молодежный чемпионат мира 2012 (U-20). Четвертьфинал: Россия - Чехия [02.01 ...
  • Чемпионат Германии 2011-12 / 28-й тур / Боруссия Д - Штутгарт / НТВ+ [Футбо ...
  • Чемпионат Испании 2011-12 / 36-й тур / Реал Мадрид - Севилья / НТВ+ [Футбол ...
  • Чемпионат Европы 2012 / Группа C / 1-й тур / Ирландия — Хорватия / ТРК Футб ...
  • Чемпионат Европы 2012 / Группа D / 1-й тур / Украина - Швеция / Спорт 1 [11 ...
  • Олимпиада 2012 / Мужчины / Группа D / 1-й тур / Испания — Япония / НТВ+ [Фу ...
  • Олимпиада 2012 / Футбол / Мужчины / Группа A / 3-й тур / Великобритания - У ...
  • Чемпионат Англии 2011-12 / 32-й тур / Обзор тура / Спорт 1 [Футбол, 10.04.2 ...
  • Чемпионат Англии 2011-2012 / Championship / 45-й Тур / Обзор Матчей / НТВ+ ...
  • Лига Чемпионов 2011-12 / 1/2 финала / Ответный матч / Реал Мадрид – Бавария ...
  • Романтики / The Romantics (Галт Нидерхоффер, Драма, мелодрама, комедия, 201 ...
  • Чемпионат Европы 2012 / Группа B / 1-й тур / Германия - Португалия / Спорт ...
  • Олимпийский квалификационный турнир 2012 / Венесуэла / Мужчины / Группа C / ...
  • Олимпиада 2012 / Женщины, Мужчины / Плавание / Квалификация / НТВ+ [30.07.2 ...
  • Искажение / Skew (Сейв Челенз, ужасы, триллер, 2011) [HDRip, Профессиональн ...
  • Информация
    Посетители, находящиеся в группе Гости, не могут оставлять комментарии к данной публикации.