вход на сайт

Имя пользователя :
Пароль :

Восстановление пароля Регистрация
Разговор с Владимиром Путиным. Продолжение. 2010. ПОЛНАЯ ВЕРСИЯ. (16.12.2010)[TVRip]
Рейтинг:
(голосов: 1)



[img]{THEME}/images/logopost.png[/img]



Разговор с Владимиром Путиным

Страна: Россия
Год выпуска: 2010
Жанр: Телевизионное интервью
Ведущие: М. Ситтель, Э. Мацкявичюс

Описание:Премьер-министр РФ Владимир Путин почти 4,5 часа общался с россиянами, ответив на 90 вопросов. Премьер в очередной раз побил собственный рекорд продолжительности общения с россиянами в прямом эфире.

В рамках программы глава Правительства ответил на многочисленные вопросы россиян по самым актуальным общественно-политическим темам.
Программа продолжалась рекордное время - 4 часа 26 минут.
Премьер-министр РФ Владимир Путин признался, что для него не было сложных вопросов в ходе четырехчасового общения с россиянами в рамках прямой линии. Отвечая на вопрос журналистов по завершении телеобщения о том, какие вопросы для него были самыми трудными, Путин подчеркнул, что таких не было. "Я каждый божий день занимаюсь рассмотрением этих проблем, даже если они не входят в компетенцию правительства", - пояснил премьер.

Доп. информация: Премьер-министр РФ Владимир Путин сегодня в прямом теле- и радиоэфире отвечал на вопросы жителей страны в рамках передачи "Разговор с Владимиром Путиным. Продолжение". Задать вопрос Путину можно было как в прямом эфире, дозвонившись по телефону 8-800-200-40-40, так и заранее, отправив SMS на короткий номер 0-40-40 или оставив сообщение на сайтах www.moskva-putinu.ru и москва-путину.рф. Стоит отметить, что к началу трансляции количество вопросов, направленных премьеру, превысило полмиллиона, сообщали в пресс-службе Кабинета министров.

Из поступивших вопросов 21% посвящен жилищным проблемам, 17,5% - безопасности и охране правопорядка, 12% - социальному обеспечению и страхованию, 7% - семейным и детским проблемам, а также по 6% - образованию, науке, культуре и здравоохранению. Россияне спрашивали у премьера о ксенофобии, пенсионном возрасте, зарплатах, ветхом и аварийном жилье, детских садах, газификации и чемпионате мира по футболу, который пройдет в нашей стране в 2018 г., а также станет ли 31 декабря нерабочим днем.

Качество: TVRip

Продолжительность: 04:26:37

Формат: AVI
Видео кодек: DivX
Аудио кодек: MP3
Свойства видео: 640x480, (4:3), 25 fps, DivX, ~860 kbps avg
Свойства аудио: 44.100 kHz, MPEG Layer 3, 1 ch, ~64.00 kbps avg
MediaInfo
▼Format : AVI
Format/Info : Audio Video Interleave
Format profile : OpenDML
File size : 4.04 GiB
Duration : 4h 26mn
Overall bit rate : 859 Kbps
Writing application : Lavf52.39.1

Video
Format : xvid
Codec ID : xvid
Duration : 4h 26mn
Bit rate : 830 Kbps
Width : 640 pixels
Height : 480 pixels
Display aspect ratio : 4:3
Frame rate : 25.000 fps
Resolution : 24 bits
Bits/(Pixel*Frame) : 0.108
Stream size : 3.90 GiB (97%)

Audio
ID : 1
Format : MPEG Audio
Format version : Version 1
Format profile : Layer 3
Codec ID : 55
Codec ID/Hint : MP3
Duration : 4h 25mn
Bit rate mode : Constant
Bit rate : 64.0 Kbps
Channel(s) : 1 channel
Sampling rate : 44.1 KHz
Resolution : 16 bits
Stream size : 122 MiB (3%)
Alignment : Aligned on interleaves
Interleave, duration : 26 ms (0.65 video frame)
Writing library : LAME3.96.1



2aa28af3ba66e4249d3acf6a0e173346d0e83287Разговор с Владимиром Путиным. Продолжение. 2010. ПОЛНАЯ ВЕРСИЯ. (16.12.2010)[TVRip] Разговор с Владимиром Путиным. Продолжение. 2010. ПОЛНАЯ ВЕРСИЯ. (16.12.2010)[TVRip] " />

Аплоадер: Админ, дата: 19-12-2010, 15:52, торрент скачан: 359 раз

Понравилась раздача? Посмотрите эти:
  • Чемпионат Англии 2013-14 / Мир Премьер-Лиги / Premier League World / НТВ+ [ ...
  • Премьер-министр и я / The Prime Minister and I / Сезон 1, Эпизоды с 1 по 6 ...
  • Чемпионат Англии 2013-14 / Мир Премьер-Лиги / Premier League World / НТВ+ [ ...
  • Чемпионат Англии 2013-14 / Мир Премьер-Лиги / Premier League World / НТВ+ [ ...
  • 50 Лучших Голов АПЛ за всю историю / The Premierships 50 Greatest Goals[Фут ...
  • Мир Премьер-Лиги / Premier League World / Спорт 1 [Футбол, 26.05.2013, 720p ...
  • Мир Премьер-Лиги / Premier League World / Спорт 1 [Футбол, 05.05.2013, 720p ...
  • Мир Премьер-Лиги / Premier League World / Спорт 1 [Футбол, 12.05.2013, 720p ...
  • Мир Премьер-Лиги / Premier League World / Спорт 1 [Футбол, 19.05.2013, 720p ...
  • Мир Премьер-Лиги / Premier League World / Спорт 1 [Футбол, 21.04.2013, 400p ...
  • Мир Премьер-Лиги / Premier League World / Спорт 1 [Футбол, 07.04.2013, 400p ...
  • Мир Премьер-Лиги / Premier League World / Спорт 1 [Футбол, 27.04.2013, 400p ...
  • Мир Премьер-Лиги / Premier League World / Спорт 1 [Футбол, 30.03.2013, 720p ...
  • Чемпионат Европы 2012 / Группа D / 1-й тур / Украина - Швеция / Спорт 1 [11 ...
  • Katy Perry / Firework [2010, Pop, MasterRip]
  • Первый Новогодний вечер с Максимом Галкиным и Владимиром Зеленским (ТВ-Шоу, ...
  • t.A.T.u. / Sparks [2010, Pop, TVRip]
  • Промо-ролик России FIFA 2018 [Футбол/ Презентация/ DVDRip/ 2010]
  • Неизвестный Путин (1-я серия из 8-ми)(документальный,2010) [IPTVRip, не тре ...
  • Смешные ляпы в прямом эфире (юмор, 1999-2010) [TVRip, оригинал]
  • [Видеоуроки] Видео уроки по Sony Vegas (2010) [640x480]
  • Ева Польна / Парни не плачут [2010, Pop, TVRip]
  • Задание / The Task (Алекс Оруэлл, Ужасы, 2010) [HDRip, Профессиональный (мн ...
  • Поединок с Владимиром Соловьевым (Ток шоу, 19 января 2012) [SATRip, Не треб ...
  • Поединок с Владимиром Соловьевым (Ток шоу, 2 февраля 2012) [SATRip, Не треб ...
  • Информация
    Посетители, находящиеся в группе Гости, не могут оставлять комментарии к данной публикации.