вход на сайт

Имя пользователя :
Пароль :

Восстановление пароля Регистрация
Дикий запад. Кино и реальность / The Wild And The West (документальный, 2005) [HDTVRip-AVC, Профессиональный (двухголосый, закадровый)]
Рейтинг:
(голосов: 1)



[img]{THEME}/images/logopost.png[/img]



Дикий запад. Кино и реальность / The Wild And The West


Страна: США
Производство: HD Life
Год выпуска: 2005
Жанр: документальный
Режиссёр: Манфред Крист
Ведущие: отсутствует
Участники: Питер Дж. Браун, Джо Демми, Таня Тернер, Тэдд Тернер

Перевод: Профессиональный (двухголосый, закадровый)

Описание
История о том, где и как снимались самые знаменитые вестерны. Мы побываем на земле ковбоев и диких мустангов, в долине реки Рио-Гранде, в пустыне Чихуахуа, и в краю техасских рейнжеров.


Тех.Данные
Качество: HDTVRip-AVC

Продолжительность: 00:52:26 часа

Формат: Matroska-MKV-
Видео кодек: AVC [email protected]
Аудио кодек: Audio Coding 3
Свойства видео: 1024x576 (16:9), 25.000 fps, AVC ~1750 kbps avg, 0.119 bit/pixel
Свойства аудио: 48 kHz, Audio Coding 3, 2/0 (L,R) ch, ~192.00 kbps avg

Информация MediaInfo ▼TextОбщее
Уникальный идентификатор : 226003505136684239945579923999122400756 (0xAA06B11A52EDCE639CD7725167EE25F4)
Полное имя : E:DownloadsДикий запад. Кино и реальность.2005HDTVRip-AVC.mkv
Формат : Matroska
Версия формата : Version 2
Размер файла : 731 Мбайт
Продолжительность : 52 м.
Общий поток : 1944 Кбит/сек
Дата кодирования : UTC 2013-05-14 02:34:31
Программа кодирования : mkvmerge v5.8.0 (No Sleep / Pillow) built on Sep 2 2012 15:37:04
Библиотека кодирования : libebml v1.2.3 + libmatroska v1.3.0

Видео
Идентификатор : 1
Формат : AVC
Формат/Информация : Advanced Video Codec
Профиль формата : [email protected]
Параметр CABAC формата : Да
Параметр ReFrames формата : 5 кадров
Идентификатор кодека : V_MPEG4/ISO/AVC
Продолжительность : 52 м.
Битрейт : 1750 Кбит/сек
Ширина : 1024 пикселя
Высота : 576 пикселей
Соотношение сторон : 16:9
Частота кадров : 25,000 кадров/сек
Цветовое пространство : YUV
Субдискретизация насыщенности : 4:2:0
Битовая глубина : 8 бит
Тип развёртки : Прогрессивная
Бит/(Пиксели*Кадры) : 0.119
Размер потока : 644 Мбайт (88%)
Библиотека кодирования : x264 core 125 r2208 d9d2288
Настройки программы : cabac=1 / ref=5 / deblock=1:-2:-2 / analyse=0x3:0x111 / me=umh / subme=9 / psy=1 / psy_rd=1.00:0.15 / mixed_ref=1 / me_range=32 / chroma_me=1 / trellis=2 / 8x8dct=1 / cqm=0 / deadzone=21,11 / fast_pskip=0 / chroma_qp_offset=-3 / threads=3 / lookahead_threads=1 / sliced_threads=0 / nr=0 / decimate=1 / interlaced=0 / bluray_compat=0 / constrained_intra=0 / bframes=5 / b_pyramid=2 / b_adapt=0 / b_bias=0 / direct=1 / weightb=1 / open_gop=0 / weightp=2 / keyint=250 / keyint_min=25 / scenecut=40 / intra_refresh=0 / rc_lookahead=50 / rc=2pass / mbtree=1 / bitrate=1750 / ratetol=1.0 / qcomp=0.60 / qpmin=0 / qpmax=69 / qpstep=4 / cplxblur=20.0 / qblur=0.5 / ip_ratio=1.40 / aq=1:1.00
Default : Да
Forced : Нет

Аудио
Идентификатор : 2
Формат : AC-3
Формат/Информация : Audio Coding 3
Расширение режима : CM (complete main)
Идентификатор кодека : A_AC3
Продолжительность : 52 м.
Вид битрейта : Постоянный
Битрейт : 192 Кбит/сек
Каналы : 2 канала
Расположение каналов : Front: L R
Частота : 48,0 КГц
Битовая глубина : 16 бит
Метод сжатия : С потерями
Размер потока : 72,2 Мбайт (10%)
Default : Да
Forced : Нет




208a201fe449c8d55dbcad60a7edf1f0087bbf90Дикий запад. Кино и реальность / The Wild And The West (документальный, 2005) [HDTVRip-AVC, Профессиональный (двухголосый, закадровый)] Дикий запад. Кино и реальность / The Wild And The West (документальный, 2005) [HDTVRip-AVC, Профессиональный (двухголосый, закадровый)] " />

Аплоадер: Админ, дата: 14-05-2013, 12:37, торрент скачан: 359 раз

Понравилась раздача? Посмотрите эти:
  • [NG] Комета века / Comet of the century (документальный, 2013) [HDTVRip-AVC ...
  • [BBC] Как устроена природа / BBC. How Nature Works // Эпизод 1 по 4 (из 4) ...
  • Башня / The Tower (Чи-хун Ким, драма, 2012) [BDRip-AVC, Любительский (двухг ...
  • Земля Чато / Chatos Land (Майкл Уиннер, вестерн, 1972) [DVDRip-AVC, Професс ...
  • Больше чем мёд / More Than Honey (документальный, 2012) [BDRip 720p, Профес ...
  • Обман Обамы / The Obama Deception: The Mask Comes Off (Документальный, 2009 ...
  • Гараж (Эльдар Рязанов, драма, комедия, 1979) [DVDRip-AVC, Оригинал (русский ...
  • Голливудский мусор / Garbage (Филипп Волкен, драма, комедия, 2013) [HDTVRip ...
  • [BBC] BBC: Змеи / Wildlife Special. Serpent (Документальный, 2003) [DVDRip- ...
  • Дикая Южная Африка. По Следам Белых Акул / Wildlife South Africa: Western C ...
  • [NG] На крючке: Ловля монстров. Гигантский скат / Monster Fish. Giant Sting ...
  • [NG] Война львов / Lion Battle Zone (документальный, 2011) [HDTVRip-AVC, Пр ...
  • Новые технологии войны / The New Technology of War [Часть 1] (документальны ...
  • Новые технологии войны / The New Technology of War [Часть 2] (документальны ...
  • Кошмары на стоянке трейлеров / Trailer Park of Terror (Стивен Голдманн, ужа ...
  • Суррогат / The Sessions (Бен Луин, Драма, 2012) [BDRip-AVC, Профессиональны ...
  • Чемпионат Англии 2012-2013 / 25-й тур / Обзор / Суббота / BBC Sport [2013 г ...
  • Эд Вуд / Ed Wood (Тим Бёртон, драма, комедия, биография, 1994) [BDRip-AVC, ...
  • Лоракс: Серенада / The Lorax: Serenade (Кайл Балда, мультфильм, комедия, му ...
  • [NG] Гитлеровские лагеря смерти / Hitlers G.I. Death Camp (документальный, ...
  • Информация
    Посетители, находящиеся в группе Гости, не могут оставлять комментарии к данной публикации.