вход на сайт

Имя пользователя :
Пароль :

Восстановление пароля Регистрация
Светлячок. Воссоединение Коричневых плащей к 10 годовщине / Firefly 10th Anniversary Special: Browncoats Unite (Документальный, 2012) [HDTVRip, профессиональный многоголосый закадровый + Оригинал]
Рейтинг:
(голосов: 1)



[img]{THEME}/images/logopost.png[/img]



Светлячок. Воссоединение Коричневых плащей к 10 годовщине / Firefly 10th Anniversary Special: Browncoats Unite

Спустя десять лет

Страна: США
Производство:
Год выпуска: 2012
Жанр: Документальный

Режиссёр: SCI HD
Ведущие: Отсутствуют
Участники: Нэйтан Филлиэн, Алан Тьюдик, Морена Баккарин и другие

Перевод: Профессиональный многоголосый закадровый + Оригинал
Озвучка: AlexFilm
Субтитры:Отсутствует

Описание
Спустя десять лет, актёры сериала "Светлячок" снова вместе, чтобы вспомнить историю создания короткого сериала, который стал звездой "Сай-фай" и завоевал миллионы поклонников.

Доп. информация

Тех. данные
Качество: HDTVRip
Продолжительность: 00:43:10 час.

Формат: AVI
Видео кодек: XviD
Аудио кодек: MP3
Свойства видео: 720x400 (1.80:1), 23.976 fps, XviD, ~1513 kbps avg, 0.22 bit/pixel
Свойства аудио #1: 48 kHz, MPEG Layer 3, 2 ch, ~128.00 kbps avg
Свойства аудио #2: 48 kHz, MPEG Layer 3, 2 ch, ~128.00 kbps avg


|Cтол заказов| Наши раздачи| Набор в группу| Сказать спасибо|

Mediainfo ▼TextОбщее
Полное имя : D:Firefly.10th.Anniversary.Special.Browncoats.Unite.HDTVRip.Rus.Eng.AlexFilm.avi
Формат : AVI
Формат/Информация : Audio Video Interleave
Размер файла : 550 Мбайт
Продолжительность : 43 м.
Общий поток : 1782 Кбит/сек
Программа кодирования : VirtualDubMod 1.5.10.2 (build 2542/release)
Библиотека кодирования : VirtualDubMod build 2542/release

Видео
Идентификатор : 0
Формат : MPEG-4 Visual
Профиль формата : Advanced [email protected]
Параметр BVOP формата : 1
Параметр QPel формата : Нет
Параметр GMC формата : Без точки перехода
Параметр матрицы формата : Default (MPEG)
Идентификатор кодека : XVID
Идентификатор кодека/Подсказка : XviD
Продолжительность : 43 м.
Битрейт : 1512 Кбит/сек
Ширина : 720 пикселей
Высота : 400 пикселей
Соотношение сторон : 16:9
Частота кадров : 23,976 кадра/сек
Цветовое пространство : YUV
Субдискретизация насыщенности : 4:2:0
Битовая глубина : 8 бит
Тип развёртки : Прогрессивная
Метод сжатия : С потерями
Бит/(Пиксели*Кадры) : 0.219
Размер потока : 467 Мбайт (85%)
Библиотека кодирования : XviD 1.2.1 (UTC 2008-12-04)

Аудио #1
Идентификатор : 1
Формат : MPEG Audio
Версия формата : Version 1
Профиль формата : Layer 3
Режим : Joint stereo
Расширение режима : MS Stereo
Идентификатор кодека : 55
Идентификатор кодека/Подсказка : MP3
Продолжительность : 43 м.
Вид битрейта : Постоянный
Битрейт : 128 Кбит/сек
Каналы : 2 канала
Частота : 48,0 КГц
Метод сжатия : С потерями
Размер потока : 39,5 Мбайт (7%)
Выравнивание : Соединение по промежуткам
Продолжительность промежутка : 42 мс. (1,00 видеокадр)
Время предзагрузки промежутка : 504 мс.

Аудио #2
Идентификатор : 2
Формат : MPEG Audio
Версия формата : Version 1
Профиль формата : Layer 3
Режим : Joint stereo
Расширение режима : MS Stereo
Идентификатор кодека : 55
Идентификатор кодека/Подсказка : MP3
Продолжительность : 43 м.
Вид битрейта : Постоянный
Битрейт : 128 Кбит/сек
Каналы : 2 канала
Частота : 48,0 КГц
Метод сжатия : С потерями
Размер потока : 39,5 Мбайт (7%)
Выравнивание : Соединение по промежуткам
Продолжительность промежутка : 42 мс. (1,00 видеокадр)
Время предзагрузки промежутка : 504 мс.

[/ code]


2f2792788665646add050404272563bcb4d3822dСветлячок. Воссоединение Коричневых плащей к 10 годовщине / Firefly 10th Anniversary Special: Browncoats Unite (Документальный, 2012) [HDTVRip, профессиональный многоголосый закадровый + Оригинал] Светлячок. Воссоединение Коричневых плащей к 10 годовщине / Firefly 10th Anniversary Special: Browncoats Unite (Документальный, 2012) [HDTVRip, профессиональный многоголосый закадровый + Оригинал] " />

Аплоадер: Админ, дата: 1-01-2013, 12:57, торрент скачан: 359 раз

Понравилась раздача? Посмотрите эти:
  • Слежка / The Letter (Джей Ананья, Триллер, драма, 2012) [DVDRip, Профессион ...
  • Астрал на улице Арлетт / 388 Arletta Avenue (Рэндолл Коул, Триллер, 2011) [ ...
  • Континуум: Вебсериал / Continuum Web Series // Сезон 1, эпизоды с 1 по 9 (и ...
  • Вечерний Ургант // Сезон 2. Выпуск 56 (ТВ-шоу, 11.12.2012) [SATRip, Не треб ...
  • Бог любви / God of Love (Люк Мэзени, Короткометражка, фэнтези, комедия, мел ...
  • Любовь по расписанию / Поезд (Сергей Мезенцев, мелодрама, 2012) [HDTVRip, Н ...
  • Вечерний Ургант // Сезон 2. Выпуск 62 (ТВ-шоу, 19.12.2012) [SATRip, Не треб ...
  • Вечерний Ургант // Сезон 2. Выпуск 63 (ТВ-шоу, 20.12.2012) [SATRip, Не треб ...
  • Кейси Джонс / Casey Jones (Иларион Бэнкс, Короткометражка, фэнтези, боевик, ...
  • Заместитель / Il supplente (Андреа Жублин, Короткометражка, комедия, 2007) ...
  • Вечерний Ургант // Сезон 2. Выпуск 64 (ТВ-шоу, 21.12.2012) [SATRip, Не треб ...
  • Вечерний Ургант // Сезон 2. Выпуск 66 (ТВ-шоу, 25.12.2012) [SATRip, Не треб ...
  • Вечерний Ургант // Сезон 2. Выпуск 68 (ТВ-шоу, 27.12.2012) [SATRip, Не треб ...
  • Покорить высоту / Take It to the Limit (Сэм Кит / Sam Kieth, семейный, 2000 ...
  • А что насчет тебя? / How About You (Энтони Бирн, Драма, комедия, 2007) [DVD ...
  • В лесу / The Forest (Шан Серафин, ужасы, триллер , 2011) [SATRip, Профессио ...
  • Ловцы забытых голосов / Hoshi wo Ou Kodomo (2011) [HDRip, любительский (одн ...
  • Синбад (Синдбад) / Sinbad // Сезон 1, эпизод с 1 по 3 (из 12) (фэнтэзи, пр ...
  • Развод по-русски. Выпуск №78. Трагедии звездных семей (Документальный,телеп ...
  • Бюро находок : Потерянный и найденный / Lost and Found (Филип Хант, коротко ...
  • Информация
    Посетители, находящиеся в группе Гости, не могут оставлять комментарии к данной публикации.