вход на сайт

Имя пользователя :
Пароль :

Восстановление пароля Регистрация
Развод по-русски. Выпуск №78. Трагедии звездных семей (Документальный,телепередача, 14.10.2012) [SATRip, Не требуется]
Рейтинг:
(голосов: 1)



[img]{THEME}/images/logopost.png[/img]



Развод по-русски. Выпуск №78. Трагедии звездных семей

Страна: Россия
Производство:
Год выпуска/ или дата выхода в эфир: 14.10.2012
Жанр: Документальный,телепередача

Режиссёр: Дарья Огир
Ведущие: Журналисты
Игроки/ или Участники: Артисты, звёзды, обыватели

Перевод: Не требуется

Описание: Зачем Пугачева купила место на кладбище?
Жена Эдуарда Успенского оказалась на улице. Что бы сказал Чебурашка?
Как болезнь разрушила брак Светланы Разиной?
И интимная тайна Кафельникова.
А также — как развод Федосеевой-Шукшиной разрушил жизнь ее дочери.
И сенсация: Киркоров бросил жену!
«Трагедии звездных семей» — в программе «Развод по-русски».

Качество:SATRip

Продолжительность: 00:43:06

Формат: AVI
Видео кодек: XviD
Аудио кодек: MP3
Свойства видео: 720x432 (1.67:1), 25 fps, XviD build 50 ~1500 kbps avg, 0.19 bit/pixel
Свойства аудио: 48 kHz, MPEG Layer 3, 2 ch, ~128.00 kbps avg


MediaInfo ▼Формат : AVI
Формат/Информация : Audio Video Interleave
Размер файла : 508 Мбайт
Продолжительность : 43 м.
Общий поток : 1639 Кбит/сек
Библиотека кодирования : VirtualDub build 32706/release

Видео
Идентификатор : 0
Формат : MPEG-4 Visual
Профиль формата : Advanced [email protected]
Параметр BVOP формата : 2
Параметр QPel формата : Нет
Параметр GMC формата : Без точки перехода
Параметр матрицы формата : Default (MPEG)
Идентификатор кодека : XVID
Идентификатор кодека/Подсказка : XviD
Продолжительность : 43 м.
Битрейт : 1501 Кбит/сек
Ширина : 720 пикселей
Высота : 432 пикселя
Соотношение сторон : 1,667
Частота кадров : 25,000 кадров/сек
Цветовое пространство : YUV
Субдискретизация насыщенности : 4:2:0
Битовая глубина : 8 бит
Тип развёртки : Прогрессивная
Метод сжатия : С потерями
Бит/(Пиксели*Кадры) : 0.193
Размер потока : 465 Мбайт (92%)
Библиотека кодирования : XviD 1.2.1 (UTC 2008-12-04)

Аудио
Идентификатор : 1
Формат : MPEG Audio
Версия формата : Version 1
Профиль формата : Layer 3
Режим : Joint stereo
Расширение режима : MS Stereo
Идентификатор кодека : 55
Идентификатор кодека/Подсказка : MP3
Продолжительность : 43 м.
Вид битрейта : Постоянный
Битрейт : 128 Кбит/сек
Каналы : 2 канала
Частота : 48,0 КГц
Метод сжатия : С потерями
Размер потока : 39,7 Мбайт (8%)
Выравнивание : Разделение по промежуткам
Продолжительность промежутка : 40 мс. (1,00 видеокадр)
Время предзагрузки промежутка : 500 мс.




d3a59d5affe4fec81d73d4f2586093a88569cf56Развод по-русски. Выпуск №78. Трагедии звездных семей (Документальный,телепередача, 14.10.2012) [SATRip, Не требуется] Развод по-русски. Выпуск №78. Трагедии звездных семей (Документальный,телепередача, 14.10.2012) [SATRip, Не требуется] " />

Аплоадер: Админ, дата: 15-10-2012, 20:00, торрент скачан: 359 раз

Понравилась раздача? Посмотрите эти:
  • Злые птицы: Хэллоуин / Angry Birds: HamOWeen (Джей Ройвайнен, Мультфильм, к ...
  • "Развод" по-русски. «Зубные рвачи» (Дарья Огир, документальное расследовани ...
  • Очная ставка. Не успели пожить! (Документальный, 21.04.2012) [SatRip, Не тр ...
  • Вечерний Ургант // Сезон 2. Выпуск 56 (ТВ-шоу, 11.12.2012) [SATRip, Не треб ...
  • Любовь по расписанию / Поезд (Сергей Мезенцев, мелодрама, 2012) [HDTVRip, Н ...
  • Вечерний Ургант // Сезон 2. Выпуск 62 (ТВ-шоу, 19.12.2012) [SATRip, Не треб ...
  • Вечерний Ургант // Сезон 2. Выпуск 63 (ТВ-шоу, 20.12.2012) [SATRip, Не треб ...
  • Заместитель / Il supplente (Андреа Жублин, Короткометражка, комедия, 2007) ...
  • Вечерний Ургант // Сезон 2. Выпуск 64 (ТВ-шоу, 21.12.2012) [SATRip, Не треб ...
  • Вечерний Ургант // Сезон 2. Выпуск 66 (ТВ-шоу, 25.12.2012) [SATRip, Не треб ...
  • Вечерний Ургант // Сезон 2. Выпуск 68 (ТВ-шоу, 27.12.2012) [SATRip, Не треб ...
  • Дорога на... / Road to (Таисия Игуменцева, Комедия, короткометражный, 2011) ...
  • Светлячок. Воссоединение Коричневых плащей к 10 годовщине / Firefly 10th An ...
  • Отдам котят в хорошие руки (Александр Баршак, комедия, 2012)[SATRip, не тре ...
  • Развод по-русски. Кредитная ловушка (документальное расследование, 23.01.2 ...
  • Развод по-русски - Продавцы славы (документалистика, 2011) [SATRip, не треб ...
  • Развод по-русски. Маньяк для звезды (Документальный, 22.04.2012) [SATRip, О ...
  • Серп против свастики. Схватка гигантов (Документальный, 2012) [SatRip, Не т ...
  • Живая тема. Мой муж - марсианин (Документальный, 24.04.2012) [SatRip, Не тр ...
  • Развод по-русски. Обмануть звезду (Документальный, 20.05.2012) [SATRip, Не ...
  • Силиконовая Долина (Документальный, 2012) [SatRip, Профессиональный (одного ...
  • Похудеть любой ценой (Документальный, 17.06.2012) [SatRip, Не требуется]
  • Первопрестольная (Документальный, 2012) [SatRip, Не требуется]
  • Тайные знаки конца света // Фильм 1 (документальный, 25.11.2012) [SATRip, ...
  • Бюро находок : Потерянный и найденный / Lost and Found (Филип Хант, коротко ...
  • Информация
    Посетители, находящиеся в группе Гости, не могут оставлять комментарии к данной публикации.