вход на сайт

Имя пользователя :
Пароль :

Восстановление пароля Регистрация
Тайный договор Властителей Мира или об управлении сознанием человека (Документальный / 2011) [DVDRip, Оригинал]
Рейтинг:
(голосов: 1)



[img]{THEME}/images/logopost.png[/img]



• Тайный договор Властителей Мира или об управлении сознанием человека •
♥ Страна: Россия
♥ Производство: Фронт освобождения сознания и Информационно-просветительский клуб "Хроники Перехода 2012 года"
♥ Год выпуска: 2011
♥ Жанр: Документальный
♥ Режиссёр: Нет данных
♥ Ведущие: Нет данных
♥ Игроки / Участники: Нет данных
♥ Перевод: Оригинал
♥ Субтитры: Отсутствуют
♥ Описание:
В фильме использованы отрывки из книг и статей, а также фильмов следующих авторов:
- Патрисии Кори, автора трилогии "Сирианские Откровения";
- Льва Вячеславовича Клыкова, доктора психологических наук, писателя, автора книг и статей;
- Нила Д.Уолша, американского писателя, автора книг "Беседы с Богом", посвященных вопросам духовного
совершенствования человека;
- Сэла Рэйчела, автора книги "Послания Основателей";
- Галины Царевой, режиссера фильма "Растление", "Правда о прививках";
- Реклама и дети, фрагмент док.фильма "КОРПОРАЦИЯ";
- ясновидящей Елены, автора серии книг "Послания пробуждающемуся человечеству";
- Для чего нужны СМИ и индустрия развлечений, фрагмент фильма "Дух времени (2007)";
- Тихоплавов В.Ю. и Т.С., авторов книг «Физика веры», «Великий переход» и "Кардинальным поворот";
- фрагмент интервью с проф.А.Н.Дмитриевым;
- фрагмент статьи Друнвало Мельхиседека, всемирно известного учёного, эколога, изобретателя, эзотерика, целителя и Учителя;
- из "Белой Книги Жизни";
- фрагмент статьи Н. А. Жука "О процессах дегенерации в человеческом обществе";
- из книги Ирины Ниловой "Великий Переход";
- фрагмент книги Стрельниковой Л.Л. "Человек эпохи Водолея";
- Валентины Матвеевой, режиссера фильма "Виртуальная агрессия";
- из скайп-конференции Ники;
- фрагмент передачи "Утро России";
- соц.ролик "Дети видят, дети повторяют";
- о влиянии музыки рассказывает Татьяна Морозова, психолог центра гражданских инициатив "Звезда Славутича";
- механизмы геноцида русского народа;
- фрагменты книги "Проект Россия. Третье тысячелетие";
- Вячеслава Пронина, режиссера фильма "Гражданин и Земля, или Как нас обманули";
- фрагмент книги Дмитрия Неведимова "Религия денег или Лекарство от рыночной экономики";
- Мамона - "бог" современного мира;
- Человек как часть социальной системы, фрагмент фильма "Барака";
- Как познакомиться со своей душой;
- Я СВОБОДЕН, ролик...
♥ Качество: DVDRip
♥ Продолжительность: 01:58:55

♥ Формат: AVI
♥ Видео кодек: FMP4
♥ Аудио кодек: MP3
♥ Свойства видео: MPEG-4 FMP4 720x576 (1.25:1), 25.000 fps, 171 Kbps avg, 0.017 bit/pixel
♥ Свойства аудио: MP3, 44.1 kHz, 2 ch, 128 kbps avg (RUS)
MediaInfo ▼TextGeneral
Video
ID : 0
Format : MPEG-4 Visual
Format profile : [email protected]
Format settings, BVOP : No
Format settings, QPel : No
Format settings, GMC : No warppoints
Format settings, Matrix : Default (H.263)
Codec ID : FMP4
Duration : 1h 58mn
Bit rate : 171 Kbps
Width : 720 pixels
Height : 576 pixels
Display aspect ratio : 16:9
Frame rate : 25.000 fps
Standard : PAL
Color space : YUV
Chroma subsampling : 4:2:0
Bit depth : 8 bits
Scan type : Progressive
Compression mode : Lossy
Bits/(Pixel*Frame) : 0.017
Stream size : 146 MiB (13%)
Writing library : Lavc51.25.0

Audio
ID : 1
Format : MPEG Audio
Format version : Version 1
Format profile : Layer 3
Mode : Joint stereo
Codec ID : 55
Codec ID/Hint : MP3
Duration : 11mn 29s
Bit rate mode : Constant
Bit rate : 128 Kbps
Channel(s) : 2 channels
Sampling rate : 44.1 KHz
Compression mode : Lossy
Stream size : 10.5 MiB (1%)
Alignment : Aligned on interleaves
Interleave, duration : 39 ms (0.96 video frame)
РЕЛИЗ ВЫПОЛНЕН ПО ЗАКАЗУ :arlando
Релиз Группы "Virtus"

Стол заказов по рипам / Вступление в РГ / Благодарности, критика и другое


fb32ab1af9112a2dcf5aab0311079c3c74bca495Тайный договор Властителей Мира или об управлении сознанием человека (Документальный / 2011) [DVDRip, Оригинал] Тайный договор Властителей Мира или об управлении сознанием человека (Документальный / 2011) [DVDRip, Оригинал] " />

Аплоадер: Админ, дата: 16-03-2011, 02:35, торрент скачан: 359 раз

Понравилась раздача? Посмотрите эти:
  • Молодежный чемпионат мира 2012 (U-20). Четвертьфинал: Россия - Чехия [02.01 ...
  • Чемпионат Германии 2011-12 / 28-й тур / Боруссия Д - Штутгарт / НТВ+ [Футбо ...
  • Чемпионат Испании 2011-12 / 36-й тур / Реал Мадрид - Севилья / НТВ+ [Футбол ...
  • Чемпионат Англии 2011-12 / 36 тур / Челси - Куинз Парк Рейнджерс / Спорт 1 ...
  • Чемпионат Испании 2011-12 / 20-й тур / Атлетик - Реал / НТВ+ [Футбол, 02.05 ...
  • Чемпионат Европы 2012 / Группа C / 1-й тур / Ирландия — Хорватия / ТРК Футб ...
  • Олимпиада 2012 / Мужчины / Группа D / 1-й тур / Испания — Япония / НТВ+ [Фу ...
  • Чемпионат Англии 2011-12 / 31 тур / Ньюкасл - Ливерпуль / Спорт 1 [Футбол, ...
  • Чемпионат Англии 2011-12 / 35 тур / Манчестер Юнайтед - Эвертон / Спорт 1 [ ...
  • Чемпионат Англии 2011-2012 / Championship / 45-й Тур / Обзор Матчей / НТВ+ ...
  • Лига Чемпионов 2011-12 / 1/2 финала / Ответный матч / Барселона (Испания) - ...
  • Чемпионат Англии 2011-12 / 37-й тур / Манчестер Юнайтед - Суонси Сити / Спо ...
  • NBA Finals 2012 / Sportscenter / В преддверии 3-ей игры / Viasat Sport [Бас ...
  • NBA Finals 2012 / Sportscenter / Четвертая игра под микроскопом / Viasat Sp ...
  • Товарищеский матч 2012 / Звезды мирового футбола в Майами / "Друзья Месси" ...
  • Товарищеский матч 2012 / АмаЗулу (ЮАР) - Манчестер Юнайтед (Англия) / MU TV ...
  • Чемпионат России 2012-13 / 1-й тур / Мордовия - Локомотив / НТВ+ [Футбол, 2 ...
  • Чемпионат России 2012-2013 / 1-й тур / Алания (Владикавказ) - Спартак (Моск ...
  • Олимпиада 2012 / Женщины, Мужчины / Плавание / Квалификация / НТВ+ [30.07.2 ...
  • ХХХ Летние Олимпийские Игры / Лёгкая атлетика / День 7 / Финалы и Полуфинал ...
  • Информация
    Посетители, находящиеся в группе Гости, не могут оставлять комментарии к данной публикации.