вход на сайт

Имя пользователя :
Пароль :

Восстановление пароля Регистрация
Что надо знать о женщине, садясь с ней в машину (документальный, 2013) [WEBRip, не требуется]
Рейтинг:
(голосов: 1)



[img]{THEME}/images/logopost.png[/img]



Что надо знать о женщине, садясь с ней в машину

Страна:Россия
Производство: Ал. Меняйлов
Год выпуска: 2013
Жанр: документальный
Режиссёр: Ал. Меняйлов
Ведущие: отсутствует
Участники: Реальные люди

Перевод: не требуется


Описание
Если бы люди знали все о женщинах, садясь с ней в машину, то, наверное бы, пришло всеобщее счастье. Вот об одном забытом нюансе и повествует этот необычный кинофильм.



Тех.Данные
Качество: WEBRip

Продолжительность: 00:17:01 часа

Формат: MPEG-PS
Видео кодек: MPEG Video
Аудио кодек: MPEG Layer 2
Свойства видео: 720x576 (4:3), 25 fps, MPEG Video ~3022 kbps avg, 0.29 bit/pixel
Свойства аудио: 48 kHz, MPEG Layer 2, 2 ch, ~224.00 kbps avg

Информация MediaInfo ▼TextОбщее
Полное имя : D:DownloadsЧто надо знать о женщине, садясь с ней в машину.mpg
Формат : MPEG-PS
Размер файла : 403 Мбайт
Продолжительность : 17 м.
Режим общего битрейта : Переменный
Общий поток : 3312 Кбит/сек

Видео
Идентификатор : 224 (0xE0)
Формат : MPEG Video
Версия формата : Version 2
Профиль формата : [email protected]
Параметр BVOP формата : Да
Параметр матрицы формата : По умолчанию
Параметр GOP формата : M=3, N=15
Продолжительность : 17 м.
Вид битрейта : Переменный
Битрейт : 3022 Кбит/сек
Максимальный битрейт : 6000 Кбит/сек
Ширина : 720 пикселей
Высота : 576 пикселей
Соотношение сторон : 4:3
Частота кадров : 25,000 кадров/сек
Стандарт вещания : PAL
Цветовое пространство : YUV
Субдискретизация насыщенности : 4:2:0
Битовая глубина : 8 бит
Тип развёртки : Прогрессивная
Метод сжатия : С потерями
Бит/(Пиксели*Кадры) : 0.291
Размер потока : 368 Мбайт (91%)

Аудио
Идентификатор : 192 (0xC0)
Формат : MPEG Audio
Версия формата : Version 1
Профиль формата : Layer 2
Продолжительность : 17 м.
Вид битрейта : Постоянный
Битрейт : 224 Кбит/сек
Каналы : 2 канала
Частота : 48,0 КГц
Метод сжатия : С потерями
Размер потока : 27,3 Мбайт (7%)



d649159f79b4406d60beebbfea33afb9c6ef00c6Что надо знать о женщине, садясь с ней в машину (документальный, 2013) [WEBRip, не требуется] Что надо знать о женщине, садясь с ней в машину (документальный, 2013) [WEBRip, не требуется] " />

Аплоадер: Админ, дата: 13-02-2013, 13:50, торрент скачан: 359 раз

Понравилась раздача? Посмотрите эти:
  • Hurts / Somebody to Die For [2013, Pop, WEBRip]
  • Inna feat. Juan Magan / Un Momento [2011, Pop, Dance, Master]
  • Elvira T / Одержима [2013, Pop, HDRip]
  • Герои / Закаты алые [2012, Pop, WebRip]
  • Tonari no kaibutsu kun / Rihanna Diamonds (2012)
  • Miranda Cosgrove / Dancing Crazy [2011, Pop, WEB-DLRip 720p]
  • Andreea Banica / Love in Brasil [2010, Pop, Dance, Club, Master]
  • Sasha Lopez Feat. Andreea D & Broono / All My People [2011, Pop, Dance, Clu ...
  • DJ Sava Feat. Raluka & Connect-R / Love You [2011, Pop, Master]
  • Сталин и Зоя: трудное решение (документальный, исторический, 2012) [WEBRip, ...
  • Ariana Grande - ft. Mac Miller / The Way [2013, Pop, WEB-DLRip 1080p]
  • О чём молчат девушки (Карен Оганесян, Комедия, 2013) [DVD5 R5, Не требуется ...
  • Тайны советского кино - "Любовь и голуби" (документальный, Эфир от 13.06.20 ...
  • Как человек бросал курить (Сергей Андрюшкин, Документальный, 2011) [DVD5, н ...
  • Kobe Bryant Takes Over [720p] [2011, Баскетбол, HDTV/720p]
  • Sepultura / Attitude [1996, Death Metal, WebRip]
  • Нонито Донэйр - Хорхе Арсе / Nonito Donaire vs Jorge Arce [Бокс, 15.12.2012 ...
  • То лето страсти / Un été brûlant (Филипп Гаррель, драма, 2011) [DVD9, Профе ...
  • Камень (Вячеслав Каминский, Фантастика, триллер, криминал, 2012) [DVD9, Не ...
  • Вирус / Попрошу тебя [2001, Pop, DVD]
  • Краски / Старший брат - 2 [2003, Pop, DVD5]
  • Вирус / Ручки [1999, Pop, TVRip]
  • Акула / Кислотный DJ [2000, Pop, SATRip]
  • Развод по-русски. Выпуск №78. Трагедии звездных семей (Документальный,телеп ...
  • Schiller / Mitternacht [2010, Ambient, WebRip]
  • Информация
    Посетители, находящиеся в группе Гости, не могут оставлять комментарии к данной публикации.