вход на сайт

Имя пользователя :
Пароль :

Восстановление пароля Регистрация
Новые технологии войны / The New Technology of War [Часть 1] (документальный, военный, 2007) [DVDRip-AVC, Профессиональный (одноголосый, закадровый)]
Рейтинг:
(голосов: 1)



[img]{THEME}/images/logopost.png[/img]



Новые технологии войны / The New Technology of War


Страна:США
Производство: Strategic Entertainment, Stuart Goldman Company
Год выпуска: 2007
Жанр: документальный, военный
Режиссёр: Эрнест Шульц
Ведущие: отсутствует
Участники: Эксперты, Военные

Перевод: Профессиональный (одноголосый, закадровый)

Описание
Минисериал, созданный в содружестве с известным научно-популярным журналом «Популярная механика», представит зрителю военную науку ХХI века почти полностью преобразившейся: новые, не виданные прежде виды вооружений, потрясающие научные открытия, эксклюзивные кино- и видеокадры, исчерпывающие и убедительные интервью авторитетных экспертов, от которых невозможно оторваться! В этом выпуске вы узнаете, чем современные сухопутные, морские и воздушные виды вооружений отличаются от своих предшественников.



Тех.Данные
Качество: DVDRip-AVC

Продолжительность: 02:36:20 часа

Формат: Matroska-MKV-
Видео кодек: AVC [email protected]
Аудио кодек: Audio Coding 3
Свойства видео: 768x576 (4:3), 25 fps, AVC ~1750 kbps avg, 0.158 bit/pixel
Свойства аудио: 48 kHz, AC3 Dolby Digital, 2/0 (L,R) ch, ~192 kbps

Информация MediaInfo ▼TextОбщее
Уникальный идентификатор : 197849575857467167358070224789331059713 (0x94D8713822E0683CAE192E6451B92401)
Полное имя : E:DownloadsНовые технологии войны.Ч1.2007.DVDRip-AVC.mkv
Формат : Matroska
Версия формата : Version 2
Размер файла : 2,12 Гбайт
Продолжительность : 2 ч. 36 м.
Общий поток : 1944 Кбит/сек
Дата кодирования : UTC 2013-05-02 07:58:09
Программа кодирования : mkvmerge v6.1.0 (Old Devil) built on Mar 4 2013 09:10:42
Библиотека кодирования : libebml v1.3.0 + libmatroska v1.4.0

Видео
Идентификатор : 1
Формат : AVC
Формат/Информация : Advanced Video Codec
Профиль формата : [email protected]
Параметр CABAC формата : Да
Параметр ReFrames формата : 5 кадров
Идентификатор кодека : V_MPEG4/ISO/AVC
Продолжительность : 2 ч. 36 м.
Битрейт : 1750 Кбит/сек
Ширина : 768 пикселей
Высота : 576 пикселей
Соотношение сторон : 4:3
Частота кадров : 25,000 кадров/сек
Цветовое пространство : YUV
Субдискретизация насыщенности : 4:2:0
Битовая глубина : 8 бит
Тип развёртки : Прогрессивная
Бит/(Пиксели*Кадры) : 0.158
Размер потока : 1,87 Гбайт (88%)
Библиотека кодирования : x264 core 130 r2273 b3065e6
Настройки программы : cabac=1 / ref=5 / deblock=1:-2:-2 / analyse=0x3:0x111 / me=umh / subme=9 / psy=1 / psy_rd=0.00:0.10 / mixed_ref=1 / me_range=32 / chroma_me=1 / trellis=2 / 8x8dct=1 / cqm=0 / deadzone=21,11 / fast_pskip=0 / chroma_qp_offset=-1 / threads=3 / lookahead_threads=1 / sliced_threads=0 / nr=0 / decimate=1 / interlaced=0 / bluray_compat=0 / constrained_intra=0 / bframes=5 / b_pyramid=2 / b_adapt=0 / b_bias=0 / direct=1 / weightb=1 / open_gop=0 / weightp=2 / keyint=250 / keyint_min=25 / scenecut=40 / intra_refresh=0 / rc_lookahead=50 / rc=2pass / mbtree=1 / bitrate=1750 / ratetol=1.0 / qcomp=0.60 / qpmin=0 / qpmax=69 / qpstep=4 / cplxblur=20.0 / qblur=0.5 / ip_ratio=1.40 / aq=1:1.00
Default : Да
Forced : Нет

Аудио
Идентификатор : 2
Формат : AC-3
Формат/Информация : Audio Coding 3
Расширение режима : CM (complete main)
Идентификатор кодека : A_AC3
Продолжительность : 2 ч. 36 м.
Вид битрейта : Постоянный
Битрейт : 192 Кбит/сек
Каналы : 2 канала
Расположение каналов : Front: L R
Частота : 48,0 КГц
Битовая глубина : 16 бит
Метод сжатия : С потерями
Размер потока : 215 Мбайт (10%)
Default : Да
Forced : Нет




3dcf791ee51bb8e5f9f3f187b318d91897c4d030Новые технологии войны / The New Technology of War [Часть 1] (документальный, военный, 2007) [DVDRip-AVC, Профессиональный (одноголосый, закадровый)] Новые технологии войны / The New Technology of War [Часть 1] (документальный, военный, 2007) [DVDRip-AVC, Профессиональный (одноголосый, закадровый)] " />

Аплоадер: Админ, дата: 7-05-2013, 11:04, торрент скачан: 359 раз

Понравилась раздача? Посмотрите эти:
  • [NG] Комета века / Comet of the century (документальный, 2013) [HDTVRip-AVC ...
  • Мэрайа Мунди и шкатулка Мидаса / The Adventurer: The Curse of the Midas Box ...
  • [BBC] Как устроена природа / BBC. How Nature Works // Эпизод 1 по 4 (из 4) ...
  • Мальчишник: Часть III / The Hangover Part III (Тодд Филлипс, комедия, 2013) ...
  • Вооруженные силы. Боевые машины: Шерман атакует / Battle Stations: Sherman ...
  • Они сражались за Родину (полная версия) (Сергей Бондарчук, драма, военный, ...
  • Башня / The Tower (Чи-хун Ким, драма, 2012) [BDRip-AVC, Любительский (двухг ...
  • Голодная жена и горячий любовник / La moglie in bianco... lamante al pepe ( ...
  • Земля Чато / Chatos Land (Майкл Уиннер, вестерн, 1972) [DVDRip-AVC, Професс ...
  • Обман Обамы / The Obama Deception: The Mask Comes Off (Документальный, 2009 ...
  • Гараж (Эльдар Рязанов, драма, комедия, 1979) [DVDRip-AVC, Оригинал (русский ...
  • [NG] Медоеды: Змеиные убийцы / Honey Badgers of the Kalahari. Snake Killers ...
  • [BBC] BBC: Безжалостные убийцы / BBC: Ultimate Killers // Выпуск 1 по 3 (из ...
  • [BBC] BBC: Змеи / Wildlife Special. Serpent (Документальный, 2003) [DVDRip- ...
  • Кавказский пленник (Сергей Бодров, драма, военный, 1996) [DVDRip-AVC, не тр ...
  • Дикая Южная Африка. По Следам Белых Акул / Wildlife South Africa: Western C ...
  • История Немецкой военной авиации 1914-1945 / Die Geschichte der deutschen L ...
  • [NG] На крючке: Ловля монстров. Гигантский скат / Monster Fish. Giant Sting ...
  • [NG] Война львов / Lion Battle Zone (документальный, 2011) [HDTVRip-AVC, Пр ...
  • Новые технологии войны / The New Technology of War [Часть 2] (документальны ...
  • Дикий запад. Кино и реальность / The Wild And The West (документальный, 200 ...
  • Огонь Кристиана Лубутена 3D / FEU: Crazy Horse Paris (Бруно Халлин, Докумен ...
  • Суррогат / The Sessions (Бен Луин, Драма, 2012) [BDRip-AVC, Профессиональны ...
  • Чемпионат Англии 2012-2013 / 25-й тур / Обзор / Суббота / BBC Sport [2013 г ...
  • [NG] Гитлеровские лагеря смерти / Hitlers G.I. Death Camp (документальный, ...
  • Информация
    Посетители, находящиеся в группе Гости, не могут оставлять комментарии к данной публикации.