вход на сайт

Имя пользователя :
Пароль :

Восстановление пароля Регистрация
Марш к Победе. Дорога на Рим / March To Victory. Road To Rome // (14 серий из 14) (история,война, 2007) [IPTVRip,Профессиональный(одноголосый)]
Рейтинг:
(голосов: 1)



[img]{THEME}/images/logopost.png[/img]



Марш к Победе. Дорога на Рим / March To Victory. Road To Rome

Страна: США
Производство: Creation Films Documentaries
Год выпуска: 2007
Жанр: документальный, война, история

Режиссёр: Эдвард Фоурхерд

Перевод: Профессиональный(одноголосый)

Описание: Италия. В 1922 году к власти пришло фашистское правительство во главе с Муссолини. Фашистская Италия захватила Эфиопию (1935-1936), Албанию (1939). Был заключен союз с нацистской Германией, в 1940 году Италия вступила во Вторую мировую войну. В 1943 году режим Муссолини пал, но германские войска оккупировали страну. Против захватчиков развернулось движение Сопротивления. Итальянские партизаны совместно с англо-американскими войсками освободили в 1945 году всю страну. В 1946 году Италия была провозглашена республикой.
Документальный сериал о боях, происходивших в пустынях Северной Африки, на скалистых берегах Сицилии, и холмах кровавого Монте-Кассино во время Второй мировой войны.

Список эпизодов и дата выхода в эфир ▼
1. Ось из крови и стали / Axis of Blood and Steel. ▼
Скриншоты ▼



2. Северная Африка / North Africa. ▼
Скриншоты ▼


3. Война на Балканах / War in the Balkans. ▼
Скриншоты ▼


4. Крит / Crete. ▼
Скриншоты ▼


5. Мальта / Malta. ▼
Скриншоты ▼


6. Эль-Аламейн / El Alamein. ▼
Скриншоты ▼


7. Кассерин / Kasserine. ▼
Скриншоты ▼


8. Сицилия / Sicily. ▼
Скриншоты ▼


9. Салермо / Salerno. ▼
Скриншоты ▼


10. Касино / Cassino. ▼
Скриншоты ▼


11. Анцио / Anzio. ▼
Скриншоты ▼


12.Битва за Рим / Battle of Rome. ▼
Скриншоты ▼


13. Долина По / The Po Valley. ▼
Скриншоты ▼


14.Дополнительные материалы / Bonus Material. ▼
Скриншоты ▼Media info ▼ Марш к победе, Дорога на РимDoroga.na.Rim.(14.serij.iz.14).2007.DivX.IPTVRip.alf62.&.awas99Doroga.na.Rim.(01.serija.iz.14).Os.iz.krovi.istali.2007.DivX.IPTVRip.alf62.&.awas99.avi
Format : AVI
Format/Info : Audio Video Interleave
File size : 460 MiB
Duration : 32mn 20s
Overall bit rate : 1 990 Kbps
Writing application : VirtualDubMod 1.5.10.3 | www.virtualdub-fr.org || (build 2550/release)
Writing library : VirtualDubMod build 2550/release

Video
ID : 0
Format : MPEG-4 Visual
Format profile : Advanced [email protected]
Format settings, BVOP : 2
Format settings, QPel : No
Format settings, GMC : No warppoints
Format settings, Matrix : Default (MPEG)
Codec ID : DX50
Codec ID/Hint : DivX 5
Duration : 32mn 20s
Bit rate : 1 853 Kbps
Width : 704 pixels
Height : 528 pixels
Display aspect ratio : 4:3
Frame rate : 25.000 fps
Color space : YUV
Chroma subsampling : 4:2:0
Bit depth : 8 bits
Scan type : Progressive
Compression mode : Lossy
Bits/(Pixel*Frame) : 0.199
Stream size : 429 MiB (93%)
Writing library : XviD 73

Audio
ID : 1
Format : MPEG Audio
Format version : Version 1
Format profile : Layer 3
Codec ID : 55
Codec ID/Hint : MP3
Duration : 32mn 20s
Bit rate mode : Constant
Bit rate : 128 Kbps
Channel(s) : 2 channels
Sampling rate : 48.0 KHz
Compression mode : Lossy
Stream size : 29.6 MiB (6%)
Alignment : Aligned on interleaves
Interleave, duration : 40 ms (1.00 video frame)
Interleave, preload duration : 504 ms
Writing library : LAME3.99r
Encoding settings : -m s -V 4 -q 2 -lowpass 17 -b 128

Доп. информация: технические данные всех серий идентичны
Качество: IPTVRip
Продолжительность: по ~ 00:35:00

Формат: AVI
Видео кодек: XviD
Аудио кодек: MP3
Свойства видео: ~704x528 (1.33:1), 25 fps, XviD build 73 ~1852 kbps avg, 0.20 bit/pixel
Свойства аудио: 48 kHz, MPEG Layer 3, 2 ch, ~128.00 kbps avg


4b513fc5e87eac577f41396d3cf0e89ce84e73f6Марш к Победе. Дорога на Рим / March To Victory. Road To Rome // (14 серий из 14) (история,война, 2007) [IPTVRip,Профессиональный(одноголосый)] Марш к Победе. Дорога на Рим / March To Victory. Road To Rome // (14 серий из 14) (история,война, 2007) [IPTVRip,Профессиональный(одноголосый)] " />

Аплоадер: Админ, дата: 3-12-2013, 21:27, торрент скачан: 359 раз

Понравилась раздача? Посмотрите эти:
  • Погнали! / Getaway (Кортни Соломон, Боевик,Криминал, 2013) [HDRip, Професси ...
  • [National Geographic] Мамонт: Воскрешение из мертвых / Mammoth: Back from t ...
  • [National Geographic] Британские НЛО: Новые факты / Mammoth: Back from the ...
  • КВН-2013. Первая Лига. 1/4 финала. Вторая игра (Тв-шоу, юмор, 28.06.2013) [ ...
  • Решала (Роман Асхаев, Драма,Криминал, 2012) [WEB-DLRip, Не требуется]
  • Чемпионат Германии 2012-2013 / 32-й тур / Обзор матчей / Футбол + (UA) [06. ...
  • Псы войны / The Dogs of War (Джон Ирвин, боевик, драма, приключения, военны ...
  • [EN] Команда: На пути Аллаха / Takiye: Allah yolunda (2010, Бен Вербонг, тр ...
  • Чемпионат Европы 2012 / Группа C / 1-й тур / Испания - Италия / Россия 1 [Ф ...
  • Чемпионат Европы 2012 / Группа D / 1-й тур / Украина - Швеция / Спорт 1 [11 ...
  • Лига Европы 2012-13 / 6-й тур / Группа H / Интер (Италия) — Нефтчи (Азербай ...
  • Неделя в NBA с В.Гомельским / НТВ+ [28.06.2011, SD, XviD, RU, SAT]
  • Оружие ХХ века: СВД (Документальный, 2009) [IPTVRip, Оригинал]
  • Дневники разработчиков Nissan GT-R / The GT-R Legend (Хакидо Санир, Докумен ...
  • [BBC] Расизм: История/ Racism: A History // Выпуски 1-3 (из 3) (документаль ...
  • [NG] Афганский героин. Проигранная война /The Afghani heroin. The lost war ...
  • Романтики / The Romantics (Галт Нидерхоффер, Драма, мелодрама, комедия, 201 ...
  • Чемпионат Европы 2012 / Группа B / 1-й тур / Германия - Португалия / Спорт ...
  • NBA Finals 2012 / Sportscenter / В преддверии 3-ей игры / Viasat Sport [Бас ...
  • Чемпионат России 2012-13 / 1-й тур / Мордовия - Локомотив / НТВ+ [Футбол, 2 ...
  • ХХХ Летние Олимпийские Игры / Лёгкая атлетика / День 7 / Финалы и Полуфинал ...
  • Искажение / Skew (Сейв Челенз, ужасы, триллер, 2011) [HDRip, Профессиональн ...
  • Лига Европы 2012-13 / 5-й тур / Группа А / Анжи (Россия) - Удинезе (Италия) ...
  • Рука-убийца / Idle Hands (Родмен Флендер,ужасы, триллер, комедия, 1999) [HD ...
  • Камень судьбы / Stone of destiny (Чарльз Мартин Смит, драма, комедия, крими ...
  • Информация
    Посетители, находящиеся в группе Гости, не могут оставлять комментарии к данной публикации.