вход на сайт

Имя пользователя :
Пароль :

Восстановление пароля Регистрация
Миф о матче смерти (Документальный, расследование, 2010) [DVDRip, Не требуется]
Рейтинг:
(голосов: 1)



[img]{THEME}/images/logopost.png[/img]



Миф о матче смерти

Страна: Россия
Производство: Компания "АВ-БесОр"
Год выпуска: 2010
Жанр: Документальный, расследование
Режиссёр: Кирилл Седухин
Ведущие: Голос за кадром
Участники: Люди в военное время
Перевод: Не требуется (Оригинал)

Описание: Событие, вошедшее в историю Великой Отечественной войны под именем «Матч смерти», было хорошо известно в Советском Союзе. Согласно официальной версии 9 августа 1942 года в оккупированном Киеве, на стадионе «Зенит», состоялся футбольный поединок. Команда «Старт», за которую выступали бывшие футболисты клуба «Динамо», сразилась с немецкой командой «Флакельф» (по одной версии, представляла она зенитчиков, по другой – ВВС), составленной из лучших летчиков Люфтваффе. Немцы потребовали проиграть матч, однако киевляне отказались это сделать и одержали победу со счетом 5:3.
После игры все 11 футболистов были вывезены в Бабий Яр и расстреляны.
Однако официальная версия событий далека от реальности...
Доп. информация: Фильм основан на реальных событиях которые происходили в Киеве во время окупации

Качество: DVDRip
Продолжительность: 00:45:00

Формат: AVI
Видео кодек: DivX 5
Аудио кодек: MP3
Свойства видео: 704x528 (1.33:1), 25 fps, DivX Codec 6.2.5 ~1549 kbps avg, 0.17 bit/pixel
Свойства аудио: 44.100 kHz, MPEG Layer 3, 2 ch, ~128.00 kbps avg
Тех. данные ▼Format : DivX
Format/Info : Hack of AVI
File size : 543 MiB
Duration : 45mn 0s
Overall bit rate : 1 687 Kbps

Video
ID : 0
Format : MPEG-4 Visual
Format settings, BVOP : 1
Format settings, QPel : No
Format settings, GMC : No warppoints
Format settings, Matrix : Default (H.263)
Muxing mode : Packed bitstream
Codec ID : DX50
Codec ID/Hint : DivX 5
Duration : 45mn 0s
Bit rate : 1 549 Kbps
Width : 704 pixels
Height : 528 pixels
Display aspect ratio : 4:3
Frame rate : 25.000 fps
Color space : YUV
Chroma subsampling : 4:2:0
Bit depth : 8 bits
Scan type : Progressive
Compression mode : Lossy
Bits/(Pixel*Frame) : 0.167
Stream size : 499 MiB (92%)
Title : Video
Writing library : DivX 6.2.5 (UTC 2006-06-16)

Audio
ID : 1
Format : MPEG Audio
Format version : Version 1
Format profile : Layer 3
Codec ID : 55
Codec ID/Hint : MP3
Duration : 45mn 0s
Bit rate mode : Constant
Bit rate : 128 Kbps
Channel(s) : 2 channels
Sampling rate : 44.1 KHz
Compression mode : Lossy
Stream size : 41.2 MiB (8%)
Alignment : Split accross interleaves
Interleave, duration : 40 ms (1.00 video frame)
Interleave, preload duration : 50 ms
Title : Audio

Стол заказов POWER | Отзывы | Вступление в POWER
Мои раздачи


ed0b3776975f8aaaed8f75747d570e7b2183316dМиф о матче смерти (Документальный, расследование, 2010) [DVDRip, Не требуется] Миф о матче смерти (Документальный, расследование, 2010) [DVDRip, Не требуется] " />

Аплоадер: Админ, дата: 27-06-2012, 22:35, торрент скачан: 359 раз

Понравилась раздача? Посмотрите эти:
  • Титанобоа: Змея-Монстр / Titanoboa: Monster Snake (документальный, живая пр ...
  • За победу — расстрел? Правда о матче смерти (документальный, 2012) [SATRip, ...
  • Тюремщик / Screwed (Рег Тревисс / Reg Traviss, Драма, 2011) [DVDRip , Люби ...
  • Чемпионат Испании 2011-12 / 36-й тур / Реал Мадрид - Севилья / НТВ+ [Футбол ...
  • Чемпионат Европы 2012 / Группа C / 1-й тур / Ирландия — Хорватия / ТРК Футб ...
  • Олимпиада 2012 / Мужчины / Группа D / 1-й тур / Испания — Япония / НТВ+ [Фу ...
  • Олимпиада 2012 / Футбол / Мужчины / Группа A / 3-й тур / Великобритания - У ...
  • Тайные знаки конца света // Фильм 3 (документальный, 09.12.2012) [SATRip, ...
  • Дневники разработчиков Nissan GT-R / The GT-R Legend (Хакидо Санир, Докумен ...
  • Вячеслав Бутусов."Когда умолкнут все песни..." (документальный, 15.10.2011) ...
  • Лига Чемпионов 2011-12 / 1/2 финала / Ответный матч / Реал Мадрид (Испания) ...
  • [BBC] День моей смерти / Day i died (Документальный, 2006) [DVDRip, Професс ...
  • NBA Finals 2012 / Sportscenter / В преддверии 3-ей игры / Viasat Sport [Бас ...
  • Товарищеский матч 2012 / Звезды мирового футбола в Майами / "Друзья Месси" ...
  • Биомиметика - факты божественного сотворения жизни / Fact of creation docum ...
  • Товарищеский матч 2012 / АмаЗулу (ЮАР) - Манчестер Юнайтед (Англия) / MU TV ...
  • Чемпионат России 2012-13 / 1-й тур / Мордовия - Локомотив / НТВ+ [Футбол, 2 ...
  • Олимпиада 2012 / Женщины, Мужчины / Плавание / Квалификация / НТВ+ [30.07.2 ...
  • Товарищеский матч / Звёзды Малайзии - Манчестер Сити / ТК Футбол [Футбол, 2 ...
  • [3D] Лондон 2012. Олимпийские игры. Церемония Открытия (Дэнни Бойл, Спорт, ...
  • Информация
    Посетители, находящиеся в группе Гости, не могут оставлять комментарии к данной публикации.