вход на сайт

Имя пользователя :
Пароль :

Восстановление пароля Регистрация
Как человек бросал курить (Сергей Андрюшкин, Документальный, 2011) [DVD5, не требуется]
Рейтинг:
(голосов: 1)



[img]{THEME}/images/logopost.png[/img]



Как человек бросал курить

Год выпуска: 2011
Страна: Россия
Производство: ООО Медиа Холдинг Толк и Польза
Жанр: Документальный
Продолжительность: 2:07:00
Перевод: Русский
Субтитры: нет
Меню: русское

Режиссёр: Сергей Андрюшкин
В ролях: Денис Касперов,психологи.

Описание: В наше время существует огромное количество "чудодейственных" способов бросить курить. Герой фильма пробует их один за другим, но покончить с пагубной привычкой не дает отсутствие истинной мотивации, которую не может предложить ни одна западная методика...


"Скриншот Меню" ▼


"MediaInfo" ▼Общее
Полное имя : D:DownloadsVIDEO_TSVTS_01_1.VOB
Формат : MPEG-PS
Размер файла : 27,2 Мбайт
Продолжительность : 29 с.
Общий поток : 7703 Кбит/сек

Видео
Идентификатор : 224 (0xE0)
Формат : MPEG Video
Версия формата : Version 2
Профиль формата : [email protected]
Параметр BVOP формата : Да
Параметр матрицы формата : По умолчанию
Параметры GOP формата : M=3, N=12
Продолжительность : 29 с.
Вид битрейта : Переменный
Битрейт : 7357 Кбит/сек
Номинальный битрейт : 9440 Кбит/сек
Ширина : 720 пикс.
Высота : 576 пикс.
Соотношение сторон : 4:3
Частота кадров : 25,000 кадр/сек
Стандарт вещания : PAL
Цветовое пространство : YUV
Подвыборка цветности : 4:2:0
Битовая глубина : 8 бит
Тип развёртки : Чересстрочная
Порядок развёртки : Нижнее поле первое
Метод сжатия : С потерями
Бит/(Пиксели*Кадры) : 0.710
Размер потока : 25,9 Мбайт (95%)

Аудио
Идентификатор : 189 (0xBD)-128 (0x80)
Формат : AC-3
Формат/Информация : Audio Coding 3
Расширение режима : CM (complete main)
Режим смешивания : DVD-Video
Продолжительность : 29 с.
Вид битрейта : Постоянный
Битрейт : 192 Кбит/сек
Канал(ы) : 2 канала(ов)
Расположение каналов : Front: L R
Частота : 48,0 КГц
Битовая глубина : 16 бит
Метод сжатия : С потерями
Задержка видео : -80 мс.
Размер потока : 694 Кбайт (2%)

Качество: DVD5
Формат: DVD Video
Видео кодек: MPEG Video
Аудио кодек: AC3
Формат видео: PAL 720x576, 25.00 fps, ~7357 kbps, 0.71 bit/pixel
Формат аудио: 48.00 Hz, AC3, 2 ch, ~192 Kbps



74511e3df34806d09d94c0dd310055b477d3980fКак человек бросал курить (Сергей Андрюшкин, Документальный, 2011) [DVD5, не требуется] Как человек бросал курить (Сергей Андрюшкин, Документальный, 2011) [DVD5, не требуется] " />

Аплоадер: Админ, дата: 21-08-2011, 16:38, торрент скачан: 359 раз

Понравилась раздача? Посмотрите эти:
  • Джанго освобождённый / Django Unchained (Квентин Тарантино, Драма, Вестерн, ...
  • Сталин и Зоя: трудное решение (документальный, исторический, 2012) [WEBRip, ...
  • Линкольн / Lincoln (Стивен Спилберг, драма, военный, биография, история, 20 ...
  • О чём молчат девушки (Карен Оганесян, Комедия, 2013) [DVD5 R5, Не требуется ...
  • Что надо знать о женщине, садясь с ней в машину (документальный, 2013) [WEB ...
  • Ты и я/You and I (Роланд Жоффе, мелодрама, комедия, 2010) [DVD5, Оригинал]
  • Любовь-морковь 3 (Сергей Гинзбург, Комедия, 2011) [DVD5, Оригинал]
  • Гарри Поттер и Дары смерти: Часть 1 / Harry Potter and the Deathly Hallows: ...
  • Притворись моей женой / Just Go with It (Дэннис Дуган, мелодрама, комедия, ...
  • Балбесы / Olsen Banden pa de bonede gulve (Юрген Лердам , мультфильм, комед ...
  • Человек ниоткуда (Дмитрий Фикс, боевик,триллер, 2010) [DVD R5, Оригинал [ли ...
  • Парень с Марса (Сергей Осипьян, комедия, 2011) [DVD5, Не требуется]
  • Огни притона (Александр Гордон, драма, 2011) [DVD5, сжатый, Оригинал]
  • То лето страсти / Un été brûlant (Филипп Гаррель, драма, 2011) [DVD9, Профе ...
  • Игра на выживание / Gone (Эйтор Далия, триллер, драма, 2012) [DVD5, Професс ...
  • Клятва / The Vow (Майкл Сакси, драма, мелодрама, 2012) [DVD5, Профессиональ ...
  • Экстрасенс / The Awakening (Ник Мерфи, ужасы, триллер, 2011) [DVD9, Професс ...
  • Вирус / Попрошу тебя [2001, Pop, DVD]
  • Краски / Старший брат - 2 [2003, Pop, DVD5]
  • Вирус / Ручки [1999, Pop, TVRip]
  • Информация
    Посетители, находящиеся в группе Гости, не могут оставлять комментарии к данной публикации.