вход на сайт

Имя пользователя :
Пароль :

Восстановление пароля Регистрация
Большие гонки / The Great Race (Блейк Эдвардс / Blake Edwards, комедия, 1965) [DVD 5, полное дублирование]
Рейтинг:
(голосов: 1)



[img]{THEME}/images/logopost.png[/img]



Большие гонки / The Great Race

Год выпуска: 1965
Страна: США
Жанр: комедия
Продолжительность: 02:33:00
Перевод: Профессиональный (Советский дубляж)
Субтитры: русские, английские
Меню: русское статическое и озвученное

Режиссёр: Блейк Эдвардс / Blake Edwards
В ролях: Джек Леммон /Jack Lemmon/, Тони Кертис /Tony Curtis/, Нэтали Вуд /Natalie Wood/, Питер Фальк /Peter Falk/, Кинэн Уинн /Keenan Wynn/, Артур ОКоннелл /Arthur OConnell

Описание: Начало ХХ века. Все начинания - грандиозны. И все проекты этих лет - сногсшибательны. И вот один из них: сверхъестественный автопробег из Нью-Йорка в Париж. Поразительные приключения и невероятно смешные ситуации...



Дополнительная информация ▼
Оригинал с которого был сделан DVD5
Сжатие примерно 40%. Сжималось связкой DVDRemake Pro, DVD Rebuilder + CCE/Procoder в 9 проходов.
Удалено: Русский DD 5.1 (синхрон), все допы, реклама, предупреждения.
Оставлено: сам фильм, звуковые дороги:
Русский( советский дубляж, DD 2.0), English ( оригинал, DD 5.1),
Субтитры: Russian, English

Бонусы ▼
Нет

Скриншоты меню ▼
Media info ▼
TextGeneral
Complete name : F:NewThe Great RaceVIDEO_TSVTS_02_1.VOB
Format : MPEG-PS
File size : 1 024 MiB
Duration : 37mn 42s
Overall bit rate : 3 796 Kbps

Video
ID : 224 (0xE0)
Format : MPEG Video
Format version : Version 2
Format profile : [email protected]
Format settings, Matrix : Default
Duration : 37mn 42s
Bit rate mode : Variable
Bit rate : 3 069 Kbps
Nominal bit rate : 6 327 Kbps
Width : 720 pixels
Height : 480 pixels
Display aspect ratio : 16:9
Frame rate : 23.976 fps
Standard : NTSC
Colorimetry : 4:2:0
Scan type : Progressive
Scan order : 2:3 Pulldown
Bits/(Pixel*Frame) : 0.370
Stream size : 828 MiB (81%)

Audio #1
ID : 129 (0x81)
Format : AC-3
Format/Info : Audio Coding 3
Duration : 37mn 42s
Bit rate mode : Constant
Bit rate : 192 Kbps
Channel(s) : 2 channels
Channel positions : L R
Sampling rate : 48.0 KHz
Stream size : 51.8 MiB (5%)

Audio #2
ID : 130 (0x82)
Format : AC-3
Format/Info : Audio Coding 3
Duration : 37mn 42s
Bit rate mode : Constant
Bit rate : 384 Kbps
Channel(s) : 6 channels
Channel positions : Front: L C R, Surround: L R, LFE
Sampling rate : 48.0 KHz
Stream size : 104 MiB (10%)

Text #1
ID : 32 (0x20)
Format : RLE
Format/Info : Run-length encoding
Duration : 37mn 36s
Video delay : 5s 5ms

Text #2
ID : 33 (0x21)
Format : RLE
Format/Info : Run-length encoding

Menu

Качество: DVD5 (сжатый)
Формат: DVD Video
Видео кодек: MPEG2
Аудио кодек: AC3
Формат видео: NTSC 16:9 (720x480), 29.97fps, 6326kbps
Формат аудио: English (Dolby AC3, 6 ch, 48.0 KHz, 384Kbps) , Russian (Dolby AC3, 2 ch, 48.0 KHz, 192Kbps)

В этом фильме есть все эпизоды, вырезанные в прокате. На этих местах вместо советского дубляжа воткнут закадровый перевод.



120db436fd3dd5e5685e108a4b61d3fde9ea93a6Большие гонки / The Great Race (Блейк Эдвардс / Blake Edwards, комедия, 1965) [DVD 5, полное дублирование] Большие гонки / The Great Race (Блейк Эдвардс / Blake Edwards, комедия, 1965) [DVD 5, полное дублирование] " />

Аплоадер: Админ, дата: 18-02-2011, 20:16, торрент скачан: 359 раз

Понравилась раздача? Посмотрите эти:
  • Грязь / Filth (Джон С. Бейрд, криминал, драма, комедия, 2013) [BDRip-AVC, ...
  • Чемпионат Мира по хоккею 2013 / Группа В / Россия - США / Россия 2 [Хоккей, ...
  • Нубы / Noobz (Блейк Фриман, Комедия, 2012) [BDRemux 1080p, Профессиональный ...
  • Большие гонки / The Great Race (Блейк Эдвардс, комедия,1965) [DVDRip, Профе ...
  • Быстрее пули / Faster (Джордж Тиллман мл, Боевик, триллер, драма, криминал, ...
  • Учитель на замену / Detachment (Тони Кэй, драма, 2011) [BDRip-AVC, Професси ...
  • [3D] Глаз ребенка / Childs Eye (Оксид Пан, ужасы, 2010) [BDrip, Профессиона ...
  • Значит, война / This Means War (МакДжи, боевик, мелодрама, комедия, 2012) [ ...
  • Товарищеский матч / США - Великобритания / ESPN [19.07.2012, Баскетбол, WEB ...
  • Большие Гонки / The Great Race (Блейк Эдвардс, Боевик, комедия, мелодрама, ...
  • t.A.T.u. / Sparks [2010, Pop, TVRip]
  • Пила 7 / Saw 7 (Кевин Гротерт, ужасы, триллер, детектив, 2010) [DVD5, Проф. ...
  • Machete / Нежность [2011, R&B, HDRip]
  • Большие гонки / The Great race (Блейк Эдвардс, приключения, боевик, комедия ...
  • Дом (Олег Погодин, драма, криминал, 2011) [DVD5, Не требуется [лицензия]]
  • Пеликан / Nicostratos le pelican (Оливье Орле, драма, комедия, 2011) [DVDR5 ...
  • Время / In Time (Эндрю Никкол, фантастика, триллер, криминал, 2011) [DVD5, ...
  • [Трейлер #1] Великий Гэтсби / The Great Gatsby (Баз Лурман, драма, мелодрам ...
  • Белоснежка: Месть гномов / Mirror Mirror (Тарсем Синх, фэнтези, драма, коме ...
  • Мстители / The Avengers (Джосс Уидон, фантастика, боевик, приключения, 2012 ...
  • Информация
    Посетители, находящиеся в группе Гости, не могут оставлять комментарии к данной публикации.