вход на сайт

Имя пользователя :
Пароль :

Восстановление пароля Регистрация
О чём молчат девушки (Карен Оганесян, Комедия, 2013) [DVD5 R5, Не требуется]
Рейтинг:
(голосов: 1)



[img]{THEME}/images/logopost.png[/img]



О чём молчат девушки
---

Год выпуска: 2013
Страна: Россия
Выпущено: Централ Партнершип
Жанр: Комедия
Продолжительность: 01:21:57 час.
Перевод: Не требуется
Оригинальная аудиодорожка: русский
Субтитры: Нет
Меню: статичное / озвученное

Режиссёр: Карен Оганесян
В главных ролях: Юлия Пересильд, Олеся Судзиловская, Ольга Смирнова, Таисия Вилкова, Михаил Пореченков, Ольга Тумайкина, Виталий Хаев

Бонусы: нет
Описание:
Четыре подруги сбегают из Москвы на уикенд в солнечную Испанию, чтобы на пляже, в SPA и за коктейлями на террасе расслабиться и поболтать обо всем. Но бывают обстоятельства, в которых девушки начинают говорить о том, о чем они обычно молчат…Дата премьеры (мир): 9 марта 2013
Дата премьеры (РФ): 7 марта 2013, «Централ Партнершип»

Качество: DVD5 R5
Формат: DVD-Video
Видео кодек: MPEG-2
Аудио кодек: AC3
Видео: PAL 16:9 (720x576) VBR, Auto Letterboxed
Аудио: Russian (Dolby AC3, 6 ch) 448 Кбит/сек, 48,0 КГц
DVDInfo: ▼
Title: O.chjom.molchat.devushki.2013.DVD5
Size: 3.84 Gb ( 4 024 300,00 KBytes ) - DVD-5
Enabled regions: 1, 2, 3, 4, 5, 6, 7, 8

VTS_01 :
Play Length: 00:00:19
Video: PAL 4:3 (720x576) VBR
Audio:
Not specified (Dolby AC3, 2 ch)
Not specified (Dolby AC3, 2 ch)
Subtitles:
Not specified

VTS_02 :
Play Length: 00:00:15
Video: PAL 16:9 (720x576) VBR, Auto Letterboxed
Audio:
Not specified (Dolby AC3, 2 ch)
Not specified (Dolby AC3, 2 ch)
Subtitles:
Not specified

VTS_03 :
Play Length: 01:21:57
Video: PAL 16:9 (720x576) VBR, Auto Letterboxed
Audio:
Russian (Dolby AC3, 6 ch)

* Menus Information *

VIDEO_TS Menu
Video:
PAL 16:9 (720x576) VBR
Auto Pan&Scan, Auto Letterboxed
English Language Unit :
Title Menu

VTS_01 Menu
Video:
PAL 16:9 (720x576) VBR
Auto Letterboxed
Audio:
Not specified (Dolby AC3, 2 ch)
English Language Unit :
Root Menu

VTS_02 Menu
Video:
PAL 4:3 (720x576) VBR
English Language Unit :
Root Menu

VTS_03 Menu
Video:
PAL 4:3 (720x576) VBR
English Language Unit :
Root Menu

MediaInfo: ▼
Общее
Полное имя : M:Новинки 2013O.chjom.molchat.devushki.2013.DVD5VIDEO_TSVTS_03_2.VOB
Формат : MPEG-PS
Размер файла : 1024 Мбайт
Продолжительность : 21 м.
Режим общего битрейта : Переменный
Общий поток : 6569 Кбит/сек

Видео
Идентификатор : 224 (0xE0)
Формат : MPEG Video
Версия формата : Version 2
Профиль формата : [email protected]
Параметр BVOP формата : Да
Параметр матрицы формата : По умолчанию
Параметр GOP формата : M=3, N=12
Продолжительность : 21 м.
Вид битрейта : Переменный
Битрейт : 5990 Кбит/сек
Максимальный битрейт : 8000 Кбит/сек
Ширина : 720 пикселей
Высота : 576 пикселей
Соотношение сторон : 16:9
Частота кадров : 25,000 кадров/сек
Стандарт вещания : PAL
Цветовое пространство : YUV
Субдискретизация насыщенности : 4:2:0
Битовая глубина : 8 бит
Тип развёртки : Прогрессивная
Метод сжатия : С потерями
Бит/(Пиксели*Кадры) : 0.578
Размер потока : 934 Мбайт (91%)

Аудио
Идентификатор : 189 (0xBD)-128 (0x80)
Формат : AC-3
Формат/Информация : Audio Coding 3
Расширение режима : CM (complete main)
Параметр Endianness формата : Big
Режим смешивания : DVD-Video
Продолжительность : 21 м.
Вид битрейта : Постоянный
Битрейт : 448 Кбит/сек
Каналы : 6 каналов
Расположение каналов : Front: L C R, Side: L R, LFE
Частота : 48,0 КГц
Битовая глубина : 16 бит
Метод сжатия : С потерями
Задержка видео : -448 мс.
Размер потока : 69,8 Мбайт (7%)Скриншоты меню: ▼





d55602a3bf8b9c19c483b202824c038befee7205О чём молчат девушки (Карен Оганесян, Комедия, 2013) [DVD5 R5, Не требуется] О чём молчат девушки (Карен Оганесян, Комедия, 2013) [DVD5 R5, Не требуется] " />

Аплоадер: Админ, дата: 17-04-2013, 20:25, торрент скачан: 359 раз

Понравилась раздача? Посмотрите эти:
  • Андроид / App (Бобо Боерманс, триллер, 2013) [DVD9 R5, Дубляж]
  • Иллюзия обмана / Now You See Me (Луи Летерье, триллер, криминал, детектив, ...
  • Отвязные каникулы / Spring Breakers (Хармони Корин, драма, комедия, 2012) [ ...
  • О чём молчат девушки (Карен Оганесян, Комедия, 2013) [BDRip, Не требуется]
  • [iPhone, iPod] О чём молчат девушки (Карен Оганесян, Комедия, 2013) [640x32 ...
  • О чём молчат девушки (Карен Оганесян, комедия, 2013) [Blu-ray [RUS] 1080p, ...
  • О чём молчат девушки (Карен Оганесян, комедия, 2013) [HDRip-AVC, Не требует ...
  • О чём молчат девушки (Карен Оганесян, комедия, 2013) [BDRip 720p, Не требуе ...
  • О чём молчат девушки (Карен Оганесян, Комедия, 2013) [BDRip-AVC, Не требует ...
  • О чём молчат девушки (Карен Оганесян, Комедия, 2013) [BDRip-AVC, Не требует ...
  • Даю год / I Give It a Year (Дэн Мазер, мелодрама, комедия, 2013) [DVD9 R5, ...
  • О чём молчат девушки (Карен Оганесян, Комедия, 2013) [DVDRip, Не требуется] ...
  • О чём молчат девушки (Карен Оганесян, комедия, 2013) [DVDRip-AVC, Не требуе ...
  • О чём молчат девушки (Карен Оганесян, комедия, 2013) [DVDRip, Не требуется] ...
  • О чём молчат девушки (Карен Оганесян, Комедия, 2013) [480x320] [DVDRip, Не ...
  • Ты и я/You and I (Роланд Жоффе, мелодрама, комедия, 2010) [DVD5, Оригинал]
  • Фантом / The Darkest Hour ( Крис Горак, фантастика, триллер, 2011) [DVD5, п ...
  • Новогодний брак (Армен Адилханян, Мелодрама, комедия, 2012) [DVD5, Не требу ...
  • Помогите Стать Отцом / Not Suitable For Children (Питер Темплмен, Мелодрама ...
  • Ржевский против Наполеона (Марюс Вайсберг, комедия, 2012) [DVD9, Не требует ...
  • Милый друг / Bel Ami (Деклан Доннеллан, Ник Ормерод, Драма, 2012) [DVD5, Пр ...
  • Ялта-45 // Эпизоды с 1 по 4 (из 4) (боевик, военный, 2012) [DVD9, Не требуе ...
  • Банкомат / ATM (Дэвид Брукс, Ужасы, Триллер, 2011) [DVD9, Профессиональный ...
  • Гавана, я люблю тебя / 7 dias en La Habana (Бенисио Дель Торо, Пабло Трапер ...
  • Орда (Андрей Прошкин, История, 2012) [DVD9+DVD5, Не требуется]
  • Информация
    Посетители, находящиеся в группе Гости, не могут оставлять комментарии к данной публикации.