вход на сайт

Имя пользователя :
Пароль :

Восстановление пароля Регистрация
Линкольн / Lincoln (Стивен Спилберг, драма, военный, биография, история, 2012) [DVD9, Дубляж + Итальянский + Оригинал (английский) + Sub]
Рейтинг:
(голосов: 1)



[img]{THEME}/images/logopost.png[/img]



Линкольн / Lincoln

Год выпуска: 2012
Страна: США
Производство: 20th Century Fox Film Corporation
Жанр: драма, военный, биография, история
Продолжительность: 02:24:29
Перевод: Дубляж +Итальянский + Оригинал (английский)
Субтитры: English, Dansk, Suomi, Italian, Norsk, Russian, Svenska, Estonian, Latvian, Lithuanian
Меню: статичное

Режиссёр: Стивен Спилберг
В ролях: Дэниэл Дэй-Льюис, Салли Филд, Дэвид Стрэтэйрн, Джозеф Гордон-Левитт, Джеймс Спэйдер, Хэл Холбрук, Томми Ли Джонс, Джон Хоукс, Джеки Эрл Хейли, Брюс МакГилл, Тим Блейк Нельсон, Джозеф Кросс

Описание: Биографическая лента об Аврааме Линкольне, шестнадцатом президенте США, который внес неоценимый вклад в победу северян во времена гражданской войны.
Бонусы: путешествие к Линкольну, воссоздание прошлого, титры
Меню: на русском, английском, итальянском языках, анимированное, озвученное

Качество: DVD9 | Сэмпл

Формат: DVD-Video
Видео кодек: MPEG2
Аудио кодек: AC3
Видео: PAL 16:9 (720x576) VBR, Auto Pan&Scan
Аудио #1: 48 kHz, AC3 Dolby Digital, 3/2 (L,C,R,l,r) + LFE ch, ~448.00 kbps avg - [English]
Аудио #2: 48 kHz, AC3 Dolby Digital, 3/2 (L,C,R,l,r) + LFE ch, ~384.00 kbps avg - [Italian]
Аудио #3: 48 kHz, AC3 Dolby Digital, 3/2 (L,C,R,l,r) + LFE ch, ~384.00 kbps avg - [Dub]

Дата премьеры (мир): 8 октября 2012
Дата премьеры (РФ): 24 января 2013, «Двадцатый Век Фокс СНГ»

MediaInfo ▼Общее
Полное имя : F:Lincoln.2012.D.DVD9VIDEO_TSVTS_04_3.VOB
Формат : MPEG-PS
Размер файла : 1024 Мбайт
Продолжительность : 23 м.
Общий поток : 6058 Кбит/сек
Видео
Идентификатор : 224 (0xE0)
Формат : MPEG Video
Версия формата : Version 2
Профиль формата : [email protected]
Параметр BVOP формата : Да
Параметр матрицы формата : По умолчанию
Продолжительность : 23 м.
Вид битрейта : Переменный
Битрейт : 4721 Кбит/сек
Номинальный битрейт : 9800 Кбит/сек
Ширина : 720 пикс.
Высота : 576 пикс.
Соотношение сторон : 16:9
Частота кадров : 25,000 кадр/сек
Стандарт вещания : Component
Цветовое пространство : YUV
Подвыборка цветности : 4:2:0
Битовая глубина : 8 бит
Тип развёртки : Прогрессивная
Порядок развёртки : Верхнее поле первое
Метод сжатия : С потерями
Бит/(Пиксели*Кадры) : 0.455
Размер потока : 798 Мбайт (78%)
Аудио #1
Идентификатор : 189 (0xBD)-128 (0x80)
Формат : AC-3
Формат/Информация : Audio Coding 3
Расширение режима : CM (complete main)
Режим смешивания : DVD-Video
Продолжительность : 23 м.
Вид битрейта : Постоянный
Битрейт : 448 Кбит/сек
Каналы : 6 каналов
Расположение каналов : Front: L C R, Side: L R, LFE
Частота : 48,0 КГц
Битовая глубина : 16 бит
Метод сжатия : С потерями
Задержка видео : -992 мс.
Размер потока : 75,7 Мбайт (7%)
Аудио #2
Идентификатор : 189 (0xBD)-129 (0x81)
Формат : AC-3
Формат/Информация : Audio Coding 3
Расширение режима : CM (complete main)
Режим смешивания : DVD-Video
Продолжительность : 23 м.
Вид битрейта : Постоянный
Битрейт : 384 Кбит/сек
Каналы : 6 каналов
Расположение каналов : Front: L C R, Side: L R, LFE
Частота : 48,0 КГц
Битовая глубина : 16 бит
Метод сжатия : С потерями
Задержка видео : -1 с. 24 мс.
Размер потока : 64,9 Мбайт (6%)
Аудио #3
Идентификатор : 189 (0xBD)-130 (0x82)
Формат : AC-3
Формат/Информация : Audio Coding 3
Расширение режима : CM (complete main)
Режим смешивания : DVD-Video
Продолжительность : 23 м.
Вид битрейта : Постоянный
Битрейт : 384 Кбит/сек
Каналы : 6 каналов
Расположение каналов : Front: L C R, Side: L R, LFE
Частота : 48,0 КГц
Битовая глубина : 16 бит
Метод сжатия : С потерями
Задержка видео : -1 с. 24 мс.
Размер потока : 64,9 Мбайт (6%)
Текст #1
Идентификатор : 189 (0xBD)-32 (0x20)
Формат : RLE
Формат/Информация : Run-length encoding
Режим смешивания : DVD-Video
Задержка видео : 160 мс.
Текст #2
Идентификатор : 189 (0xBD)-33 (0x21)
Формат : RLE
Формат/Информация : Run-length encoding
Режим смешивания : DVD-Video
Задержка видео : 160 мс.
Текст #3
Идентиф
b440ca85d225529b45133d9a112300cb18cf4b66Линкольн / Lincoln (Стивен Спилберг, драма, военный, биография, история, 2012) [DVD9, Дубляж + Итальянский + Оригинал (английский) + Sub] Линкольн / Lincoln (Стивен Спилберг, драма, военный, биография, история, 2012) [DVD9, Дубляж + Итальянский + Оригинал (английский) + Sub] " />

Аплоадер: Админ, дата: 6-05-2013, 14:28, торрент скачан: 359 раз

Понравилась раздача? Посмотрите эти:
  • Линкольн / Lincoln (Стивен Спилберг, Драма, военный, биография, история, 20 ...
  • Линкольн / Lincoln (Стивен Спилберг, Драма, военный, биография, история, 20 ...
  • Линкольн / Lincoln (Стивен Спилберг, Драма, военный, биография, история, 20 ...
  • Линкольн / Lincoln (Стивен Спилберг, Драма, военный, биография, история, 20 ...
  • Линкольн / Lincoln (Стивен Спилберг, Драма, военный, биография, история, 20 ...
  • Линкольн / Lincoln (Стивен Спилберг, Драма, военный, биография, история, 20 ...
  • Линкольн / Lincoln (Стивен Спилберг, Драма, военный, биография, история, 20 ...
  • Линкольн / Lincoln (Стивен Спилберг, Драма, военный, биография, история, 20 ...
  • Линкольн / Lincoln (Стивен Спилберг, драма, военный, биография, история, 20 ...
  • Линкольн / Lincoln (Стивен Спилберг, драма, военный, биография, история, 20 ...
  • Линкольн / Lincoln (Стивен Спилберг, драма, военный, биография, история, 20 ...
  • Линкольн / Lincoln (Стивен Спилберг, драма, военный, биография, история, 20 ...
  • Линкольн / Lincoln (Стивен Спилберг, драма, военный, биография, история, 20 ...
  • Линкольн / Lincoln (Стивен Спилберг, Драма, военный, биография, история, 20 ...
  • Линкольн / Lincoln (Стивен Спилберг, драма, военный, биография, история, 20 ...
  • Линкольн / Lincoln (Стивен Спилберг, драма, военный, биография, история, 20 ...
  • Линкольн / Lincoln (Стивен Спилберг, драма, военный, биография, история, 20 ...
  • [Трейлер] Линкольн / Lincoln (Стивен Спилберг, драма, военный, биография, и ...
  • Высоцкий. Спасибо, что живой (Петр Буслов, драма, биография, 2011) [DVD9, О ...
  • Экстрасенс / The Awakening (Ник Мерфи, ужасы, триллер, 2011) [DVD9, Професс ...
  • Информация
    Посетители, находящиеся в группе Гости, не могут оставлять комментарии к данной публикации.