вход на сайт

Имя пользователя :
Пароль :

Восстановление пароля Регистрация
Мстители / The Avengers (Джосс Уидон, фантастика, боевик, приключения, 2012) [DVD5 (сжатый), Профессиональный (Полное дублирование)]
Рейтинг:
(голосов: 1)



[img]{THEME}/images/logopost.png[/img]



Мстители / The Avengers

Год выпуска: 2012
Страна: США
Жанр:Фантастика, Боевик, Триллер
Продолжительность: 02:17:04
Перевод: Профессиональный (дублированный) [Лицензия]
Субтитры: русские, английские, испанские, украинские, болгарские, эстонские, греческие, литовские, латышские, португальские
Меню: русское статичное и озвученное

Режиссёр: Джосс Уидон
В ролях: Роберт Дауни мл., Крис Эванс, Марк Руффало, Крис Хемсворт, Скарлетт Йоханссон, Джереми Реннер, Том Хиддлстон, Сэмюэл Л. Джексон, Кларк Грегг, Коби Смолдерс

Описание: Локи, сводный брат Тора, возвращается, и в этот раз он не один. Земля на грани порабощения, и только лучшие из лучших могут спасти человечество.

Ник Фьюри, глава международной организации Щ. И. Т., собирает выдающихся поборников справедливости и добра, чтобы отразить атаку. Под предводительством Капитана Америки Железный Человек, Тор, Невероятный Халк, Соколиный глаз и Чёрная Вдова вступают в войну с захватчиком.

Топ250: 90


Бонусы отсутствуют

"Скрины меню" ▼


Сэмпл
Раздача с Beeline
"MI" ▼Format : MPEG-PS
File size : 1 024 MiB
Duration : 32mn 8s
Overall bit rate mode : Variable
Overall bit rate : 4 453 Kbps

Video
ID : 224 (0xE0)
Format : MPEG Video
Format version : Version 2
Format profile : [email protected]
Format settings, BVOP : Yes
Format settings, Matrix : Custom
Duration : 32mn 8s
Bit rate mode : Variable
Bit rate : 3 597 Kbps
Width : 720 pixels
Height : 576 pixels
Display aspect ratio : 16:9
Frame rate : 25.000 fps
Standard : PAL
Color space : YUV
Chroma subsampling : 4:2:0
Bit depth : 8 bits
Scan type : Progressive
Scan order : Top Field First
Compression mode : Lossy
Bits/(Pixel*Frame) : 0.347
Stream size : 827 MiB (81%)

Audio #1
ID : 189 (0xBD)-128 (0x80)
Format : AC-3
Format/Info : Audio Coding 3
Mode extension : CM (complete main)
Muxing mode : DVD-Video
Duration : 32mn 8s
Bit rate mode : Constant
Bit rate : 384 Kbps
Channel(s) : 6 channels
Channel positions : Front: L C R, Side: L R, LFE
Sampling rate : 48.0 KHz
Bit depth : 16 bits
Compression mode : Lossy
Delay relative to video : 261ms
Stream size : 88.3 MiB (9

Audio #2
ID : 189 (0xBD)-129 (0x81)
Format : AC-3
Format/Info : Audio Coding 3
Mode extension : CM (complete main)
Muxing mode : DVD-Video
Duration : 32mn 8s
Bit rate mode : Constant
Bit rate : 384 Kbps
Channel(s) : 6 channels
Channel positions : Front: L C R, Side: L R, LFE
Sampling rate : 48.0 KHz
Bit depth : 16 bits
Compression mode : Lossy
Delay relative to video : 261ms
Stream size : 88.3 MiB (9

Text #1
ID : 189 (0xBD)-32 (0x20)
Format : RLE
Format/Info : Run-length encoding
Muxing mode : DVD-Video
Delay relative to video : 261ms

Text #2
ID : 189 (0xBD)-33 (0x21)
Format : RLE
Format/Info : Run-length encoding
Muxing mode : DVD-Video
Delay relative to video : 261ms

Text #3
ID : 189 (0xBD)-34 (0x22)
Format : RLE
Format/Info : Run-length encoding
Muxing mode : DVD-Video
Duration : 32mn 6s
Delay relative to video : 261ms

Text #4
ID : 189 (0xBD)-35 (0x23)
Format : RLE
Format/Info : Run-length encoding
Muxing mode : DVD-Video
Duration : 32mn 6s
Delay relative to video : 261ms

Text #5
ID : 189 (0xBD)-36 (0x24)
Format : RLE
Format/Info : Run-length encoding
Muxing mode : DVD-Video
Delay relative to video : 261ms

Text #6
ID : 189 (0xBD)-37 (0x25)
Format : RLE
Format/Info : Run-length encoding
Muxing mode : DVD-Video
Delay relative to video : 261ms

Text #7
ID : 189 (0xBD)-38 (0x26)
Format : RLE
Format/Info : Run-length encoding
Muxing mode : DVD-Video
Delay relative to video : 261ms

Text #8
ID : 189 (0xBD)-39 (0x27)
Format : RLE
Format/Info : Run-length encoding
Muxing mode
8967b637e28349884f891e55866c885051092e8aМстители / The Avengers (Джосс Уидон, фантастика, боевик, приключения, 2012) [DVD5 (сжатый), Профессиональный (Полное дублирование)] Мстители / The Avengers (Джосс Уидон, фантастика, боевик, приключения, 2012) [DVD5 (сжатый), Профессиональный (Полное дублирование)] " />

Аплоадер: Админ, дата: 23-08-2012, 20:11, торрент скачан: 359 раз

Понравилась раздача? Посмотрите эти:
  • Битва экстрасенсов // Сезон 14. Спец. выпуск 2 (Паранормальное шоу, 19.01.2 ...
  • Мстители / The Avengers (Джосс Уидон, Фантастика, боевик, триллер, 2012) [A ...
  • Wladimir Klitschko VS Francesco Pianeta / Владимир Кличко - Франческо Пиане ...
  • Чемпионат Италии 2012-13 / 35-й тур / Обзор тура / НТВ+ [06.05.2013, Футбол ...
  • Международная панорама / Эфир от 06.05.2013 / НТВ+ [06.05.2013, Футбол, H.2 ...
  • Чемпионат Мира по хоккею 2013 / Группа В / Россия - США / Россия 2 [Хоккей, ...
  • Плохая актриса / Bad Actress (Роберт Ли Кинг, комедия, 2011) [DVDRip, Профе ...
  • Мстители / The Avengers (Джосс Уидон, фантастика, боевик, 2012) [BDRip-AVC, ...
  • Мстители / The Avengers (Джосс Уидон, фантастика, боевик, приключения, 2012 ...
  • [3D] Мcтители / The Аvengers (Джосс Уидон, Фантастика, Боевик, 2012) [BDRip ...
  • Пульс 2 / Pulse 2: Afterlife (Джоэль Сойзон, Драма, Фэнтази, Ужас, Мистика, ...
  • МЫ. Верим в любовь / W.E. (Мадонна, драма, мелодрама, 2011) [DVD5, Професси ...
  • Укуренные / Cheech and Chongs Up in Smoke (Лу Адлер, Томми Чонг, комедия, м ...
  • Дым / Smoke (Уэйн Ван, Пол Остер, Драма, Комедия, 1995) [BDRip 1080р, Профе ...
  • Чемпионат Европы 2012 / Финал / Испания- Италия / Спорт 1 HD [ФФутбол, 01.0 ...
  • Linkin Park / Live in London ( iTunes Festival ) [4.07.2011, Alternative, ...
  • Пастырь / Priest (Скотт Чарльз Стюарт, ужасы, фантастика, боевик, триллер, ...
  • Дом (Олег Погодин, драма, криминал, 2011) [DVD5, Не требуется [лицензия]]
  • Пеликан / Nicostratos le pelican (Оливье Орле, драма, комедия, 2011) [DVDR5 ...
  • Время / In Time (Эндрю Никкол, фантастика, триллер, криминал, 2011) [DVD5, ...
  • Чемпионат Испании 2011-12 / 35-й тур / Барселона - Реал М / НТВ+ [Футбол, 2 ...
  • Белоснежка: Месть гномов / Mirror Mirror (Тарсем Синх, фэнтези, драма, коме ...
  • Морской бой / Battleship (Питер Берг / Peter Berg) (фантастика, боевик, три ...
  • Прометей / Prometheus (Ридли Скотт, фантастика, триллер, приключения, США, ...
  • Namie Amuro / Love Story [2011, JPop, HDTVRip]
  • Информация
    Посетители, находящиеся в группе Гости, не могут оставлять комментарии к данной публикации.