вход на сайт

Имя пользователя :
Пароль :

Восстановление пароля Регистрация
Белоснежка: Месть гномов / Mirror Mirror (Тарсем Синх, фэнтези, драма, комедия, приключения, 2012) [DVD5, Профессиональный (дублированный)]
Рейтинг:
(голосов: 1)



[img]{THEME}/images/logopost.png[/img]



Белоснежка: Месть гномов / Mirror Mirror
Год выпуска: 2012
Страна: США
Производство: Relativity Media, Yuk Films, Goldmann Pictures
Жанр: фэнтези, драма, комедия, приключения
Режиссёр: Тарсем Синх
В ролях: Джулия Робертс, Лили Коллинз, Шон Бин, Арми Хаммер, Натан Лейн, Джордан Прентис, Марк Повинелли, Джо Гнофо, Дэнни Вудберн, Себастьян Сарасено, Мартин Клеббэ
Перевод: Профессиональный (дублированный) [Лицензия]
Субтитры: нет
Описание: Злая Королева, мечтающая выйти замуж за красивого и богатого Принца, хитростью выдворяет из дворца Белоснежку и берет власть в свои руки. Но милая девушка не погибла в темном дремучем лесу, а связалась с бандой гномов-разбойников. Вместе они отомстят Злодейке!



Дата премьеры (мир): 15 марта 2012
Дата премьеры (РФ): 15 марта 2012, «Парадиз»
Качество: DVD5
Продолжительность: 01:43:53 час.
Формат: DVD-Video
Видео кодек: MPEG-2
Аудио кодек: AC3
Видео: PAL 16:9 (720x576) VBR, Auto Letterboxed
Аудио: Russian (Dolby AC3, 6 ch) 384 Кбит/сек, 48,0 КГц
DVDInfo ▼TextTitle: Bob
Size: 4.35 Gb ( 4 565 938 KBytes ) - DVD-5
Enabled regions: 1, 2, 3, 4, 5, 6, 7, 8
VTS_01 :
Play Length: 01:43:51
Video: PAL 16:9 (720x576) VBR, Auto Pan&Scan
Audio:
Russian (Dolby AC3, 6 ch)
Russian (Dolby AC3, 2 ch)
VTS_02 :
Play Length:
Video: PAL 16:9 (720x576) VBR, Auto Pan&Scan
Audio:
Russian (Dolby AC3, 2 ch)
VTS_03 :
Play Length:
Video: PAL 16:9 (720x576) VBR, Auto Pan&Scan
Audio:
Russian (Dolby AC3, 2 ch)
VTS_04 :
Play Length:
Video: PAL 16:9 (720x576) VBR, Auto Pan&Scan
Audio:
Russian (Dolby AC3, 2 ch)
VTS_05 :
Play Length: 00:00:01
Video: PAL 16:9 (720x576) VBR, Auto Pan&Scan
Audio:
Russian (Dolby AC3, 2 ch)
MediaInfo ▼TextGeneral
Complete name : G:_VideoBelosnejka.Mest.Gnomov.2012.DVD5VIDEO_TSVTS_01_1.VOB
Format : MPEG-PS
File size : 1 024 MiB
Duration : 24mn 3s
Overall bit rate : 5 952 Kbps
Video
ID : 224 (0xE0)
Format : MPEG Video
Format version : Version 2
Format profile : [email protected]
Format settings, BVOP : Yes
Format settings, Matrix : Custom
Duration : 24mn 3s
Bit rate mode : Variable
Bit rate : 5 449 Kbps
Width : 720 pixels
Height : 576 pixels
Display aspect ratio : 2.35:1
Frame rate : 25.000 fps
Standard : PAL
Color space : YUV
Chroma subsampling : 4:2:0
Bit depth : 8 bits
Compression mode : Lossy
Bits/(Pixel*Frame) : 0.526
Stream size : 938 MiB (92%)
Audio
ID : 189 (0xBD)-128 (0x80)
Format : AC-3
Format/Info : Audio Coding 3
Mode extension : CM (complete main)
Muxing mode : DVD-Video
Duration : 24mn 2s
Bit rate mode : Constant
Bit rate : 384 Kbps
Channel(s) : 6 channels
Channel positions : Front: L C R, Side: L R, LFE
Sampling rate : 48.0 KHz
Bit depth : 16 bits
Compression mode : Lossy
Stream size : 66.1 MiB (6%)
Скриншоты меню: ▼




fc12496dbb4b7cd731f1f44e71abf9024deeae65Белоснежка: Месть гномов / Mirror Mirror (Тарсем Синх, фэнтези, драма, комедия, приключения, 2012) [DVD5, Профессиональный (дублированный)] Белоснежка: Месть гномов / Mirror Mirror (Тарсем Синх, фэнтези, драма, комедия, приключения, 2012) [DVD5, Профессиональный (дублированный)] " />

Аплоадер: Админ, дата: 24-05-2012, 12:16, торрент скачан: 359 раз

Понравилась раздача? Посмотрите эти:
  • Экзамен для двоих / Admission (Пол Вайц, Драма, мелодрама, комедия, 2013) [ ...
  • G.I. Joe: Бросок кобры 2 / G.I. Joe: Retaliation (Джон М. Чу, фантастика, б ...
  • Белоснежка: Месть гномов / Mirror Mirror (Тарсем Синх, фэнтези, драма, коме ...
  • Белоснежка: Месть гномов / Mirror Mirror (Тарсем Синх / Tarsus Singh, фэнте ...
  • Белоснежка: Месть гномов / Mirror Mirror (Тарсем Синх / Tarsus Singh, фэнте ...
  • Белоснежка: Месть гномов / Mirror Mirror (Тарсем Синх / Tarsus Singh, фэнте ...
  • Белоснежка: Месть гномов / Mirror Mirror (Тарсем Синх / Tarsus Singh, фэнте ...
  • Белоснежка: Месть гномов / Mirror Mirror (Тарсем Синх / Tarsus Singh, фэнте ...
  • Дом (Олег Погодин, драма, криминал, 2011) [DVD5, Не требуется [лицензия]]
  • Время / In Time (Эндрю Никкол, фантастика, триллер, криминал, 2011) [DVD5, ...
  • Война Богов: Бессмертные / Immortals (Тарсем Синх, фэнтези, боевик, драма, ...
  • Очень опасная штучка / One for the Money (Джули Энн Робинсон, комедия, 2012 ...
  • Схватка / The Grey (Джо Карнахан / Joe Carnahan) [2012, США, боевик, трилле ...
  • Ялта-45 // Эпизоды с 1 по 4 (из 4) (боевик, военный, 2012) [DVD9, Не требуе ...
  • Белоснежка: Месть гномов / Mirror Mirror (Тарсем Синх / Tarsus Singh, фэнте ...
  • Белоснежка: Месть гномов / Mirror Mirror (Тарсем Синх / Tarsus Singh, фэнте ...
  • «Весёлые» каникулы / Get the Gringo (Адриан Грюнберг, боевик, комедия, 2012 ...
  • Белоснежка: Месть гномов / Mirror Mirror (Тарсем Синх / Tarsus Singh, фэнте ...
  • Белоснежка: Месть гномов / Mirror Mirror (Тарсем Синх, фэнтези, 2012) [HDRi ...
  • Белоснежка: Месть гномов / Mirror Mirror (Тарсем Синх, фэнтези, драма, коме ...
  • Информация
    Посетители, находящиеся в группе Гости, не могут оставлять комментарии к данной публикации.