вход на сайт

Имя пользователя :
Пароль :

Восстановление пароля Регистрация
Мужчины в большом городе 2 / Männerherzen... und die ganz ganz große Liebe (Саймон Верховен, комедия, 2011) [DVD9, Профессиональный (дублированный)]
Рейтинг:
(голосов: 1)



[img]{THEME}/images/logopost.png[/img]



Мужчины в большом городе 2 / Mannerherzen... und die ganz ganz grosse LiebeГод выпуска: 2011Страна: ГерманияПроизводство: Wiedemann & Berg FilmproduktionЖанр: комедияРежиссёр: Саймон ВерховенВ ролях: Тиль Швайгер, Флориан Дэвид Фитц, Кристиан Ульмен, Юстус фон Донаньи, Надя Уль, Паскуале Алеарди, Йоханнес Алльмайер, Томас Бадинг, Майкл Бэрал, Оли Бигальке и др.Перевод: Профессиональный (дублированный)Субтитры: нетОписание:Сюжет комедии показывает разных по характеру и роду деятельности мужчин. Один из них — хозяин кафе и будущий папа, второй — безработный, третий музыкальный продюсер и бабник, а четвертый разводится. Чего именно хотят мужчины — неизвестно. Ясно только, что все они весьма схожи в своем стремлении к счастью и любви.IMDB: 6.2 (380)
КиноПоиск: 6.72 (1203)
Бонусы: нетКачество: DVD9 R5Продолжительность: 01:40:11Формат: DVD-VideoВидео кодек: MPEG2Аудио кодек: AC3Видео: PAL 16:9 (720x576) VBR, Auto LetterboxedАудио: Russian (Dolby AC3, 6 ch) 448 Кбит/сек, 48,0 КГцДата премьеры (мир):7 сентября 2011Дата премьеры (РФ): 22 февраля 2012, «Люксор»DVDInfo: ▼TextTitle:
Size: 4.97 Gb ( 5 212 836 KBytes ) - DVD-9
Enabled regions: 1, 2, 3, 4, 5, 6, 7, 8
VTS_01 :
Play Length: 00:00:19
Video: PAL 4:3 (720x576) VBR
Audio:
Russian (Dolby AC3, 2 ch)
VTS_02 :
Play Length: 00:00:02
Video: PAL 16:9 (720x576) VBR, Auto Letterboxed
Audio:
Russian (Dolby AC3, 2 ch)
VTS_03 :
Play Length: 01:47:51
Video: PAL 16:9 (720x576) VBR, Auto Letterboxed
Audio:
Russian (Dolby AC3, 6 ch)
Menu Video:
PAL 4:3 (720x576) VBR
Menu English Language Unit :
Root Menu
Chapter (PTT) MenuMediaInfo: ▼TextОбщее
Полное имя : J:Новинки 2012Muzhchiny.v.bolshom.gorode.2.2011.DVD9VIDEO_TSVTS_03_2.VOB
Формат : MPEG-PS
Размер файла : 1024 Мбайт
Продолжительность : 21 м.
Общий поток : 6580 Кбит/сек
Видео
Идентификатор : 224 (0xE0)
Формат : MPEG Video
Версия формата : Version 2
Профиль формата : [email protected]
Параметр BVOP формата : Да
Параметр матрицы формата : По умолчанию
Параметр GOP формата : M=3, N=12
Продолжительность : 21 м.
Битрейт : 6001 Кбит/сек
Максимальный битрейт : 8400 Кбит/сек
Ширина : 720 пикселей
Высота : 576 пикселей
Соотношение сторон : 16:9
Частота кадров : 25,000 кадров/сек
Стандарт вещания : PAL
Цветовое пространство : YUV
Субдискретизация насыщенности : 4:2:0
Битовая глубина : 8 бит
Тип развёртки : Чересстрочная
Порядок развёртки : Верхнее поле первое
Метод сжатия : С потерями
Бит/(Пиксели*Кадры) : 0.579
Размер потока : 934 Мбайт (91%)
Аудио
Идентификатор : 189 (0xBD)-128 (0x80)
Формат : AC-3
Формат/Информация : Audio Coding 3
Расширение режима : CM (complete main)
Режим смешивания : DVD-Video
Продолжительность : 21 м.
Вид битрейта : Постоянный
Битрейт : 448 Кбит/сек
Каналы : 6 каналов
Расположение каналов : Front: L C R, Side: L R, LFE
Частота : 48,0 КГц
Битовая глубина : 16 бит
Метод сжатия : С потерями
Задержка видео : -608 мс.
Размер потока : 69,7 Мбайт (7%)Скриншоты меню: ▼
Стол заказов POWER | Отзывы | Вступление в POWER


d999ae502f26095f2aec190d0f23240e2a23aefbМужчины в большом городе 2 / Männerherzen... und die ganz ganz große Liebe (Саймон Верховен, комедия, 2011) [DVD9, Профессиональный (дублированный)] Мужчины в большом городе 2 / Männerherzen... und die ganz ganz große Liebe (Саймон Верховен, комедия, 2011) [DVD9, Профессиональный (дублированный)] " />

Аплоадер: Админ, дата: 7-04-2012, 23:13, торрент скачан: 359 раз

Понравилась раздача? Посмотрите эти:
  • Даю год / I Give It a Year (Дэн Мазер, мелодрама, комедия, 2013) [DVD9 R5, ...
  • О чём молчат девушки (Карен Оганесян, Комедия, 2013) [DVD5 R5, Не требуется ...
  • Мужчины в большом городе 2 / Mannerherzen... und die ganz ganz grosse Liebe ...
  • Мужчины в большом городе / Mannerherzen (Саймон Верховен, комедия, 2009) [D ...
  • Мужчины в большом городе / Mannerherzen (Саймон Верховен, комедия, 2009) [D ...
  • Мужчины в большом городе / Mannerherzen (Саймон Верховен / Simon Verhoeven, ...
  • Мужчины в большом городе / Mannerherzen (Саймон Верховен, комедия, 2009) [B ...
  • Мужчины в большом городе 2 / Männerherzen... und die ganz ganz große Liebe ...
  • Притворись моей женой / Just Go with It (Дэннис Дуган, мелодрама, комедия, ...
  • Шпион, выйди вон! / Tinker Tailor Soldier Spy (Томас Альфредсон / Tomas Alf ...
  • О чём ещё говорят мужчины (Дмитрий Дьяченко, комедия, 2011) [DVD9, Не требу ...
  • Камень (Вячеслав Каминский, Фантастика, триллер, криминал, 2012) [DVD9, Не ...
  • 2016: Конец ночи / Hell (Тим Фельбаум / Tim Fehlbaum, ужасы, фантастика, тр ...
  • Ржевский против Наполеона (Марюс Вайсберг, комедия, 2012) [DVD9, Не требует ...
  • Ева: Искусственный разум / Eva (Кике Маильо, фантастика, фэнтези, драма, 20 ...
  • Мужчины в большом городе 2 / Mannerherzen... und die ganz ganz grosse Liebe ...
  • Мужчины в большом городе 2 / Männerherzen... und die ganz ganz grosse Liebe ...
  • Мужчины в большом городе 2 / Männerherzen... und die ganz ganz große Liebe ...
  • Экстрасенс / The Awakening (Ник Мерфи, ужасы, триллер, 2011) [DVD9, Професс ...
  • Банкомат / ATM (Дэвид Брукс, Ужасы, Триллер, 2011) [DVD9, Профессиональный ...
  • Информация
    Посетители, находящиеся в группе Гости, не могут оставлять комментарии к данной публикации.