вход на сайт

Имя пользователя :
Пароль :

Восстановление пароля Регистрация
Клятва / The Vow (Майкл Сакси, драма, мелодрама, 2012) [DVD5, Профессиональный (полное дублирование)]
Рейтинг:
(голосов: 1)



[img]{THEME}/images/logopost.png[/img]



Клятва / The Vow

Год выпуска: 2012
Страна:США Германия Франция Бразилия Великобритания Австралия
Производство: Screen Gems, Spyglass Entertainment
Жанр: драма, мелодрама

Режиссёр: Майкл Сакси
В ролях: Рэйчел МакАдамс, Ченнинг Татум, Сэм Нил, Скотт Спидман, Джессика Лэнг, Джессика МакНэми, Венди Крюсон, Татьяна Маслани, Лукас Брайант, Джои Клейн

Перевод: Профессиональный (полное дублирование) (Russian) + Профессиональный (полное дублирование) (Ukrainian)
Субтитры: Отсутствуют

Описание: СВо время медового месяца Пейдж и Лео попадают в автокатастрофу. Пока жена находится в коме, Лео не отходит от ее кровати ни на час, но возвращение девушки к жизни омрачено потерей памяти — она не узнает любимого и не помнит об их романе. И тогда Лео решает заново завоевать сердце Пейдж.



Качество: DVD5 R5
Продолжительность: 01:39:55 час.

Формат: DVD-Video
Видео кодек: MPEG2
Аудио кодек: AC3
Видео: PAL 16:9 (720x576) VBR, Auto Letterboxed
Аудио: 48 kHz, AC3, 6 ch, ~384.00 kbps avg | (Russian)
Аудио: 48 kHz, AC3, 6 ch, ~384.00 kbps avg | (Ukrainian)

Премьера (мир): 9 февраля 2012
Премьера (мир): 1 марта 2012, «WDSSPR»

DVDInfo ▼Title:
Size: 4.34 Gb ( 4 551 014 KBytes ) - DVD-5
Enabled regions: 1, 2, 3, 4, 5, 6, 7, 8
VTS_01 :
Play Length: 01:39:55
Video: PAL 16:9 (720x576) VBR, Auto Letterboxed
Audio:
Russian (Dolby AC3, 6 ch)
Ukrainian (Dolby AC3, 6 ch)
Subtitles:
Russian
Menu Video:
PAL 16:9 (720x576) VBR
Auto Letterboxed
Menu Audio:
Not specified (Dolby AC3, 6 ch)
Menu Subtitles:
Not specified
Menu Russian Language Unit :
Root Menu
Audio Menu
Chapter (PTT) MenuMediaInfo ▼Общее
Полное имя : G:Новинки 2012Kljatva.2012.DVD5VIDEO_TSVTS_01_1.VOB
Формат : MPEG-PS
Размер файла : 1024 Мбайт
Продолжительность : 23 м.
Режим общего битрейта : Переменный
Общий поток : 5982 Кбит/сек
Видео
Идентификатор : 224 (0xE0)
Формат : MPEG Video
Версия формата : Version 2
Профиль формата : [email protected]
Параметр BVOP формата : Да
Параметр матрицы формата : Выборочная
Продолжительность : 23 м.
Вид битрейта : Переменный
Битрейт : 5095 Кбит/сек
Максимальный битрейт : 9000 Кбит/сек
Ширина : 720 пикселей
Высота : 576 пикселей
Соотношение сторон : 16:9
Частота кадров : 25,000 кадров/сек
Стандарт вещания : PAL
Цветовое пространство : YUV
Субдискретизация насыщенности : 4:2:0
Битовая глубина : 8 бит
Тип развёртки : Прогрессивная
Порядок развёртки : Верхнее поле первое
Метод сжатия : С потерями
Бит/(Пиксели*Кадры) : 0.491
Размер потока : 872 Мбайт (85%)
Аудио #1
Идентификатор : 189 (0xBD)-128 (0x80)
Формат : AC-3
Формат/Информация : Audio Coding 3
Расширение режима : CM (complete main)
Режим смешивания : DVD-Video
Продолжительность : 23 м.
Вид битрейта : Постоянный
Битрейт : 384 Кбит/сек
Каналы : 6 каналов
Расположение каналов : Front: L C R, Side: L R, LFE
Частота : 48,0 КГц
Битовая глубина : 16 бит
Метод сжатия : С потерями
Размер потока : 65,7 Мбайт (6%)
Аудио #2
Идентификатор : 189 (0xBD)-129 (0x81)
Формат : AC-3
Формат/Информация : Audio Coding 3
Расширение режима : CM (complete main)
Режим смешивания : DVD-Video
Продолжительность : 23 м.
Вид битрейта : Постоянный
Битрейт : 384 Кбит/сек
Каналы : 6 каналов
Расположение каналов : Front: L C R, Side: L R, LFE
Частота : 48,0 КГц
Битовая глубина : 16 бит
Метод сжатия : С потерями
Размер потока : 65,7 Мбайт (6%)Скриншоты меню ▼


340921c9cb8cfd0fbcd85ecd727582fb0d120482Клятва / The Vow (Майкл Сакси, драма, мелодрама, 2012) [DVD5, Профессиональный (полное дублирование)] Клятва / The Vow (Майкл Сакси, драма, мелодрама, 2012) [DVD5, Профессиональный (полное дублирование)] " />

Аплоадер: Админ, дата: 24-03-2012, 02:53, торрент скачан: 359 раз

Понравилась раздача? Посмотрите эти:
  • О чём молчат девушки (Карен Оганесян, Комедия, 2013) [DVD5 R5, Не требуется ...
  • Клятва / The Vow (Майкл Сакси, Драма, 2012) [BDRip-AVC, Дубляж + Оригинал + ...
  • Клятва / The Vow (Майкл Сакси, Драма, 2012) [BDRip-AVC, Дублированный + Sub ...
  • Клятва / The Vow (Майкл Сакси, Драма, 2012) [BDRip-AVC, Дублированный + Ори ...
  • Клятва / The Vow (Майкл Сакси, Драма, 2012) [BDRip-AVC, Дублированный + Sub ...
  • Ты и я/You and I (Роланд Жоффе, мелодрама, комедия, 2010) [DVD5, Оригинал]
  • Клятва / The Vow (Майкл Сакси, драма, мелодрама, 2012) [BDRip 1080p, Дубляж ...
  • Клятва / The Vow (Майкл Сакси, Драма, 2012)[BDRip 720p, Профессиональный (п ...
  • Клятва / The Vow (Майкл Сакси, Драма, мелодрама, 2012) [BDRip-AVC, Професси ...
  • Притворись моей женой / Just Go with It (Дэннис Дуган, мелодрама, комедия, ...
  • Шпион, выйди вон! / Tinker Tailor Soldier Spy (Томас Альфредсон / Tomas Alf ...
  • 2016: Конец ночи / Hell (Тим Фельбаум / Tim Fehlbaum, ужасы, фантастика, тр ...
  • Игра на выживание / Gone (Эйтор Далия, триллер, драма, 2012) [DVD5, Професс ...
  • Клятва / The Vow (Майкл Сакси, драма, мелодрама, 2012г) [320x240] [DVDRip, ...
  • [EN] Клятва / The Vow (Майкл Сакси, драма, мелодрама, 2012) [DVDRip, Оригин ...
  • Экстрасенс / The Awakening (Ник Мерфи, ужасы, триллер, 2011) [DVD9, Професс ...
  • Клятва / The Vow (Майкл Сакси, драма, мелодрама, 2012) [HDRip, Дублированны ...
  • Клятва / The Vow (Майкл Сакси, Драма, 2012) [HDRip, Профессиональный (полно ...
  • Клятва / The Vow (Майкл Сакси, Драма, 2012) [BDRip, Дубляж + Оригинал]
  • Клятва / The Vow (Майкл Сакси, драма, мелодрама, 2012г) [BDRip, Дублированн ...
  • Информация
    Посетители, находящиеся в группе Гости, не могут оставлять комментарии к данной публикации.