вход на сайт

Имя пользователя :
Пароль :

Восстановление пароля Регистрация
Игра на выживание / Gone (Эйтор Далия, триллер, драма, 2012) [DVD5, Профессиональный (полное дублирование)]
Рейтинг:
(голосов: 1)



[img]{THEME}/images/logopost.png[/img]



Игра на выживание / Gone
«Никто ей не верит. Ничто её не остановит.»

Год выпуска: 2012 г.
Страна: США
Производство: Lakeshore Entertainment, Sidney Kimmel Entertainment
Жанр: Триллер, драма

Режиссёр: Эйтор Далия / Heitor Dhalia
В ролях: Аманда Сайфред, Дэниэл Санжата, Дженнифер Карпентер, Себастиан Стэн, Уэс Бентли, Ник Сирси, Сократис Отто, Эмили Уикершем, Джоэль Мур, Кэтрин Менниг

Перевод: Профессиональный (полное дублирование)
Субтитры: Нет

Описание:
Джилл Пэрриш однажды приходит домой и не находит сестру. Джилл уверена, что серийный убийца, который похищал ее пару лет назад, вернулся, чтобы довести начатое до логического завершения. А начнет он с ее сестры. Полиция не воспринимает ее всерьез, говоря, что девушка объявится, когда нагуляется. Единственный выход — вступить в схватку с маньяком и разобраться с этим раз и навсегда.





Качество: DVD5
Продолжительность: 01:30:56 час.

Формат: DVD-Video
Видео кодек: MPEG2
Аудио кодек: AC3
Видео: PAL 16:9 (720x576) VBR, Auto Letterboxed
Аудио: 48 kHz, AC3 Dolby Digital, 3/2 (L,C,R,l,r) + LFE ch, 448.00 kbps avg
Скриншоты меню ▼
Скриншоты ▼
DVDInfo ▼TextTitle: Игра.на.выживание-Gone.(2012).DVD5
Size: 4.26 Gb ( 4 471 708,00 KBytes ) - DVD-5
Enabled regions: 1, 2, 3, 4, 5, 6, 7, 8

VTS_01 :
Play Length: 00:00:05
Video: PAL 4:3 (720x576) VBR

VTS_02 :
Play Length: 00:00:16
Video: PAL 16:9 (720x576) VBR, Auto Letterboxed
Audio:
Not specified (Dolby AC3, 2 ch)

VTS_03 :
Play Length: 00:00:07
Video: PAL 16:9 (720x576) VBR, Auto Letterboxed
Audio:
Not specified (Dolby AC3, 2 ch)

VTS_04 :
Play Length: 00:02:02
Video: PAL 16:9 (720x576) VBR, Auto Letterboxed
Audio:
Not specified (Dolby AC3, 2 ch)

VTS_05 :
Play Length: 00:00:16
Video: PAL 16:9 (720x576) VBR, Auto Letterboxed
Audio:
Not specified (Dolby AC3, 2 ch)

VTS_06 :
Play Length: 01:30:56
Video: PAL 16:9 (720x576) VBR, Auto Letterboxed
Audio:
Russian (Dolby AC3, 6 ch)
MediaInfo ▼TextФормат : MPEG-PS
Размер файла : 4.26 Гигабайт
Продолжительность : 01 час с30 м.
Общий поток : 6403 Кбит/сек

Видео
Идентификатор : 224 (0xE0)
Формат : MPEG Video
Версия формата : Version 2
Профиль формата : [email protected]
Параметр BVOP формата : Да
Параметр матрицы формата : По умолчанию
Параметры GOP формата : M=3, N=12
Продолжительность : 22 м.
Вид битрейта : Переменный
Битрейт : 5828 Кбит/сек
Максимальный битрейт : 8000 Кбит/сек
Ширина : 720 пикс.
Высота : 576 пикс.
Соотношение сторон : 16:9
Частота кадров : 25,000 кадр/сек
Стандарт вещания : PAL
Цветовое пространство : YUV
Подвыборка цветности : 4:2:0
Битовая глубина : 8 бит
Тип развёртки : Прогрессивная
Метод сжатия : С потерями
Бит/(Пиксели*Кадры) : 0.562
Размер потока : 932 Мбайт (91%)

Аудио
Идентификатор : 189 (0xBD)-128 (0x80)
Формат : AC-3
Формат/Информация : Audio Coding 3
Расширение режима : CM (complete main)
Режим смешивания : DVD-Video
Продолжительность : 22 м.
Вид битрейта : Постоянный
Битрейт : 448 Кбит/сек
Каналы : 6 каналов
Расположение каналов : Front: L C R, Side: L R, LFE
Частота : 48,0 КГц
Битовая глубина : 16 бит
Метод сжатия : С потерями
Размер потока : 71,6 Мбайт (7%)

Меню
Дата премьеры (мир): 21 февраля 2012
Дата премьеры (РФ): 23 февраля 2012, «UPI»





70918725950237045f25e653b52661316e280560Игра на выживание / Gone (Эйтор Далия, триллер, драма, 2012) [DVD5, Профессиональный (полное дублирование)] Игра на выживание / Gone (Эйтор Далия, триллер, драма, 2012) [DVD5, Профессиональный (полное дублирование)] " />

Аплоадер: Админ, дата: 20-03-2012, 23:01, торрент скачан: 359 раз

Понравилась раздача? Посмотрите эти:
  • Игра на выживание / Gone (Эйтор Далия, Триллер, драма, детектив, 2012) [BDR ...
  • Игра на выживание / Gone (Эйтор Далия, триллер, драма, 2012) [BDRip-AVC, Ду ...
  • Игра на выживание / Gone (Эйтор Далия, триллер, драма, 2012) [BDRip-AVC, Ду ...
  • Ты и я/You and I (Роланд Жоффе, мелодрама, комедия, 2010) [DVD5, Оригинал]
  • Фантом / The Darkest Hour ( Крис Горак, фантастика, триллер, 2011) [DVD5, п ...
  • Игра на выживание / Gone (Эйтор Далия, триллер, драма, 2012) [BDRip 720p, П ...
  • Игра на выживание / Gone (Эйтор Далия, триллер, драма, 2012) [BDRip 1080p, ...
  • Забери мою душу 2D / My Soul to Take 2D (Уэс Крэйвен / Wes Craven, ужасы, т ...
  • Челюсти 3D / Shark Night 3D (Дэвид Р. Эллис,ужасы, триллер, 2011) [DVD5, Ду ...
  • Камень (Вячеслав Каминский, Фантастика, триллер, криминал, 2012) [DVD9, Не ...
  • Ржевский против Наполеона (Марюс Вайсберг, комедия, 2012) [DVD9, Не требует ...
  • Очень опасная штучка / One for the Money (Джули Энн Робинсон, комедия, 2012 ...
  • Игра на выживание / Gone (Эйтор Далия, триллер, драма, 2012) [HDRip, Дублир ...
  • Экстрасенс / The Awakening (Ник Мерфи, ужасы, триллер, 2011) [DVD9, Професс ...
  • Игра на выживание / Gone (Эйтор Далия, триллер, драма, 2012г) [320x240] [HD ...
  • Милый друг / Bel Ami (Деклан Доннеллан, Ник Ормерод, Драма, 2012) [DVD5, Пр ...
  • Фантом / The Darkest Hour ( Крис Горак, фантастика, триллер, 2011) [DVD9, п ...
  • Игра на выживание / Gone (Эйтор Далия, триллер, драма, 2012) [BDRip, Дубляж ...
  • 1+1 / Неприкасаемые / Intouchables (Оливье Накаш, Эрик Толедано, драма, ком ...
  • «Весёлые» каникулы / Get the Gringo (Адриан Грюнберг, боевик, комедия, 2012 ...
  • Информация
    Посетители, находящиеся в группе Гости, не могут оставлять комментарии к данной публикации.