вход на сайт

Имя пользователя :
Пароль :

Восстановление пароля Регистрация
2016: Конец ночи / Hell (Тим Фельбаум / Tim Fehlbaum, ужасы, фантастика, триллер, 2011) [DVD9, Профессиональный (дублированный) ]
Рейтинг:
(голосов: 1)



[img]{THEME}/images/logopost.png[/img]



2016: Конец ночи / Hell
«Солнце нас сожжёт»
Год выпуска: 2011Страна: Германия, ШвейцарияПроизводство: Caligari Film- und Fernsehproduktions, Claussen Wöbke Putz Filmproduktion, Paramount PicturesЖанр: Ужасы, фантастика, триллерРежиссёр: Тим ФельбаумВ ролях: Ханна Херцшпрунг, Ларс Айдингер, Стипе Эрчег, Лиза Викари, Йоанн Бланк, Марко Каламандрей, Кристоф Гоглер, Ангела ВинклерПеревод: Профессиональный (дублированный) [Лицензия]Субтитры: РусскиеОписание:Перед тем, как окончательно погаснуть, Солнце увеличилось до невероятных размеров и выжгло всю Землю, превратив ее в непригодную для жизни пустыню.
Среди немногих выживших группа молодых людей, которые отправились в горы в поисках воды и пищи. Но эта мысль посетила не только их и очень скоро ребята оказываются втянуты в безжалостную борьбу за выживание.Бонусы: Интервью с актёрами и съёмочной группой, интервью с Роандом Эммерихом, трейлерКачество: DVD9 R5Продолжительность: 01:25:40Формат: DVD-VideoВидео кодек: MPEG2Аудио кодек: AC3Видео: PAL 16:9 (720x576) VBR, Auto Pan&ScanАудио #1: Russian (Dolby AC3, 6 ch) 384 Кбит/сек, 48,0 КГцАудио #2: Russian (Dolby AC3, 2 ch) 192 Кбит/сек, 48,0 КГцДата премьеры (мир): 28 июня 2011Дата премьеры (РФ): 1 декабря 2011, «Каравелла DDC»DVDInfo ▼TextTitle:
Size: 6.40 Gb ( 6 715 946 KBytes ) - DVD-9
Enabled regions: 1, 2, 3, 4, 5, 6, 7, 8
VTS_01 :
Play Length: 01:25:40
Video: PAL 16:9 (720x576) VBR, Auto Pan&Scan
Audio:
Russian (Dolby AC3, 6 ch)
Russian (Dolby AC3, 2 ch)
Subtitles:
Russian
VTS_02 :
Play Length: 00:00:05+00:00:13
Video: PAL 16:9 (720x576) VBR, Auto Pan&Scan
Audio:
Russian (Dolby AC3, 6 ch)
VTS_03 :
Play Length: 00:01:45+00:10:54
Video: PAL 16:9 (720x576) VBR, Auto Pan&Scan
Audio:
Russian (Dolby AC3, 2 ch)
VTS_04 :
Play Length: 00:02:57
Video: PAL 16:9 (720x576) VBR, Auto Pan&Scan
Audio:
Russian (Dolby AC3, 2 ch)
VTS_05 :
Play Length: 00:00:23
Video: PAL 4:3 (720x576) VBR
Audio:
Russian (Dolby AC3, 2 ch)
Menu Video:
PAL 4:3 (720x576) VBR
Auto Pan&Scan, Auto Letterboxed
Menu Russian Language Unit :
Root Menu
Angle menuMediaInfo ▼TextОбщее
Полное имя : G:Новинки 20122016.Konec.nochi.2011.DVD9VIDEO_TSVTS_01_4.VOB
Формат : MPEG-PS
Размер файла : 1024 Мбайт
Продолжительность : 16 м.
Общий поток : 8737 Кбит/сек
Видео
Идентификатор : 224 (0xE0)
Формат : MPEG Video
Версия формата : Version 2
Профиль формата : [email protected]
Параметр BVOP формата : Да
Параметр матрицы формата : По умолчанию
Параметр GOP формата : M=3, N=12
Продолжительность : 16 м.
Битрейт : 8000 Кбит/сек
Ширина : 720 пикселей
Высота : 576 пикселей
Соотношение сторон : 16:9
Частота кадров : 25,000 кадров/сек
Стандарт вещания : PAL
Цветовое пространство : YUV
Субдискретизация насыщенности : 4:2:0
Битовая глубина : 8 бит
Тип развёртки : Чересстрочная
Порядок развёртки : Верхнее поле первое
Метод сжатия : С потерями
Бит/(Пиксели*Кадры) : 0.772
Размер потока : 936 Мбайт (91%)
Аудио #1
Идентификатор : 189 (0xBD)-128 (0x80)
Формат : AC-3
Формат/Информация : Audio Coding 3
Расширение режима : CM (complete main)
Режим смешивания : DVD-Video
Продолжительность : 16 м.
Вид битрейта : Постоянный
Битрейт : 384 Кбит/сек
Каналы : 6 каналов
Расположение каналов : Front: L C R, Side: L R, LFE
Частота : 48,0 КГц
Битовая глубина : 16 бит
Метод сжатия : С потерями
Задержка видео : -544 мс.
Размер потока : 45,0 Мбайт (4%)
Аудио #2
Идентификатор : 189 (0xBD)-129 (0x81)
Формат : AC-3
Формат/Информация : Audio Coding 3
Расширение режима : CM (complete main)
Режим смешивания : DVD-Video
Продолжительность : 16 м.
Вид битрейта : Постоянный
Битрейт : 192 Кбит/сек
Каналы : 2 канала
Расположение каналов : Front: L R
Частота : 48,0 КГц
Битовая глубина : 16 бит
Метод сжатия : С потерями
Задержка видео : -448 мс.
Размер потока : 22,5 Мбайт (2%)Скриншоты меню ▼ Скриншоты доп. материалов ▼
Стол заказов POWER | Отзывы | Вступление в POWER



02aaaaf428b5dd067d3bbcab3ffc5d5620821f612016: Конец ночи / Hell (Тим Фельбаум / Tim Fehlbaum, ужасы, фантастика, триллер, 2011) [DVD9, Профессиональный (дублированный) ] 2016: Конец ночи / Hell (Тим Фельбаум / Tim Fehlbaum, ужасы, фантастика, триллер, 2011) [DVD9, Профессиональный (дублированный) ] " />

Аплоадер: Админ, дата: 18-02-2012, 20:22, торрент скачан: 359 раз

Понравилась раздача? Посмотрите эти:
  • Андроид / App (Бобо Боерманс, триллер, 2013) [DVD9 R5, Дубляж]
  • G.I. Joe: Бросок кобры 2 / G.I. Joe: Retaliation (Джон М. Чу, фантастика, б ...
  • Даю год / I Give It a Year (Дэн Мазер, мелодрама, комедия, 2013) [DVD9 R5, ...
  • 2016: Конец ночи / Hell (Тим Фельбаум, ужасы, фантастика, триллер, 2011) [D ...
  • Ты и я/You and I (Роланд Жоффе, мелодрама, комедия, 2010) [DVD5, Оригинал]
  • 2016: Конец ночи / Hell (Тим Фельбаум, ужасы, фантастика, триллер, 2011) ...
  • 2016: Конец ночи / Hell (Тим Фельбаум, ужасы, фантастика, триллер, 2011) [B ...
  • Нечто / The Thing (Маттис ван Хейниген мл, ужасы, фантастика, триллер, дете ...
  • Высоцкий. Спасибо, что живой (Петр Буслов, драма, биография, 2011) [DVD9, О ...
  • Шпион, выйди вон! / Tinker Tailor Soldier Spy (Томас Альфредсон / Tomas Alf ...
  • Камень (Вячеслав Каминский, Фантастика, триллер, криминал, 2012) [DVD9, Не ...
  • 2016: Конец ночи / Hell (Тим Фельбаум, ужасы, фантастика, триллер, 2011) [D ...
  • Ржевский против Наполеона (Марюс Вайсберг, комедия, 2012) [DVD9, Не требует ...
  • Ева: Искусственный разум / Eva (Кике Маильо, фантастика, фэнтези, драма, 20 ...
  • Экстрасенс / The Awakening (Ник Мерфи, ужасы, триллер, 2011) [DVD9, Професс ...
  • Мужчины в большом городе 2 / Männerherzen... und die ganz ganz große Liebe ...
  • Фантом / The Darkest Hour ( Крис Горак, фантастика, триллер, 2011) [DVD9, п ...
  • 2016: Конец ночи / Hell (Тим Фельбаум, ужасы, фантастика, триллер, 2011) [B ...
  • 2016: Конец ночи / Hell (Тим Фельбаум, ужасы, фантастика, триллер, 2011) [H ...
  • Банкомат / ATM (Дэвид Брукс, Ужасы, Триллер, 2011) [DVD9, Профессиональный ...
  • Информация
    Посетители, находящиеся в группе Гости, не могут оставлять комментарии к данной публикации.