вход на сайт

Имя пользователя :
Пароль :

Восстановление пароля Регистрация
Камень (Вячеслав Каминский, Фантастика, триллер, криминал, 2012) [DVD9, Не требуется]
Рейтинг:
(голосов: 1)



[img]{THEME}/images/logopost.png[/img]



Камень
«Когда остаешься один, твое сердце превращается в...»


Год выпуска: 2012Страна: Россия Производство: New Regency PicturesЖанр: Фантастика, триллер, криминалРежиссёр: Вячеслав КаминскийВ ролях: Сергей Светлаков, Олеся Судзиловская, Николай Козак, Елена Коренева, Валда Бичкуте, Александр КолесниковПеревод: Не требуетсяСубтитры: НетОписание:Когда у известного бизнесмена похищают 7-летнего сына, он еще не представляет, какое испытание его ждет! Оказывается, таинственному похитителю не нужен никакой выкуп и у него единственное требование к отцу. В течение следующих суток тот должен решить, кто умрет из них двоих: его ребенок или он сам…Бонусы: Музыкальный клипКачество: DVD9 R5Продолжительность: 01:24:49Формат: DVD-VideoВидео кодек: MPEG2Аудио кодек: AC3Видео: PAL 16:9 (720x576) VBR, Auto LetterboxedАудио: Russian (Dolby AC3, 6 ch) 448 Кбит/сек, 48,0 КГцДата премьеры (мир): 19 января 2012Дата премьеры (РФ): 19 января 2012, «Bazelevs Distribution»DVDInfo ▼TextTitle: Рабочий
Size: 4.68 Gb ( 4 902 956 KBytes ) - DVD-9
Enabled regions: 1, 2, 3, 4, 5, 6, 7, 8
VTS_01 :
Play Length: 00:00:15
Video: PAL 4:3 (720x576) VBR
Audio:
Not specified (Dolby AC3, 2 ch)
VTS_02 :
Play Length: 00:00:08
Video: PAL 16:9 (720x576) VBR, Auto Letterboxed
Audio:
Not specified (Dolby AC3, 2 ch)
VTS_03 :
Play Length: 01:24:49
Video: PAL 16:9 (720x576) VBR, Auto Letterboxed
Audio:
Russian (Dolby AC3, 6 ch)
VTS_04 :
Play Length: 00:02:25
Video: PAL 16:9 (720x576) VBR, Auto Letterboxed
Audio:
Not specified (Dolby AC3, 2 ch)
VTS_05 :
Play Length: 00:03:34
Video: PAL 16:9 (720x576) VBR, Auto Letterboxed
Audio:
Not specified (Dolby AC3, 2 ch)MediaInfo ▼TextОбщее
Полное имя : G:Новинки 2012Kamen.2012.DVD9VIDEO_TSVTS_03_2.VOB
Формат : MPEG-PS
Размер файла : 1024 Мбайт
Продолжительность : 19 м.
Режим общего битрейта : Переменный
Общий поток : 7325 Кбит/сек
Видео
Идентификатор : 224 (0xE0)
Формат : MPEG Video
Версия формата : Version 2
Профиль формата : [email protected]
Параметр BVOP формата : Да
Параметр матрицы формата : Выборочная
Продолжительность : 19 м.
Вид битрейта : Переменный
Битрейт : 6732 Кбит/сек
Максимальный битрейт : 7500 Кбит/сек
Ширина : 720 пикселей
Высота : 576 пикселей
Соотношение сторон : 16:9
Частота кадров : 25,000 кадров/сек
Стандарт вещания : PAL
Цветовое пространство : YUV
Субдискретизация насыщенности : 4:2:0
Битовая глубина : 8 бит
Тип развёртки : Прогрессивная
Метод сжатия : С потерями
Бит/(Пиксели*Кадры) : 0.649
Размер потока : 941 Мбайт (92%)
Аудио
Идентификатор : 189 (0xBD)-128 (0x80)
Формат : AC-3
Формат/Информация : Audio Coding 3
Расширение режима : CM (complete main)
Режим смешивания : DVD-Video
Продолжительность : 19 м.
Вид битрейта : Постоянный
Битрейт : 448 Кбит/сек
Каналы : 6 каналов
Расположение каналов : Front: L C R, Side: L R, LFE
Частота : 48,0 КГц
Битовая глубина : 16 бит
Метод сжатия : С потерями
Задержка видео : -584 мс.
Размер потока : 62,6 Мбайт (6%)Скриншоты меню ▼ Скриншоты доп. материалов ▼
Стол заказов POWER | Отзывы | Вступление в POWER



dcf4e91910c650c583c6081dabfb62b6ee394891Камень (Вячеслав Каминский, Фантастика, триллер, криминал, 2012) [DVD9, Не требуется] Камень (Вячеслав Каминский, Фантастика, триллер, криминал, 2012) [DVD9, Не требуется] " />

Аплоадер: Админ, дата: 14-02-2012, 13:07, торрент скачан: 359 раз

Понравилась раздача? Посмотрите эти:
  • Андроид / App (Бобо Боерманс, триллер, 2013) [DVD9 R5, Дубляж]
  • G.I. Joe: Бросок кобры 2 / G.I. Joe: Retaliation (Джон М. Чу, фантастика, б ...
  • Возвращение героя / The Last Stand (Ким Чжи-ун, Боевик, триллер, криминал, ...
  • Заложница 2 [Театральная версия] / Taken 2 [Theatrical Cut] (Оливье Мегатон ...
  • Ты и я/You and I (Роланд Жоффе, мелодрама, комедия, 2010) [DVD5, Оригинал]
  • Камень (Вячеслав Каминский, триллер, 2012) [BDRip 720p, Не требуется]
  • Камень (Вячеслав Каминский, триллер, 2012) [BDRip 1080p, Не требуется]
  • Беременный (Сарик Андреасян, Комедия, 2011) [DVD9, Оригинал]
  • Нечто / The Thing (Маттис ван Хейниген мл, ужасы, фантастика, триллер, дете ...
  • Бой с тенью : Последний раунд (Алексей Сидоров) [2011, Россия, боевик, дра ...
  • Камень (Вячеслав Каминский, триллер, 2012) [BDRip, Не требуется]
  • Камень (Вячеслав Каминский, триллер, 2012) [Blu-ray disc 1080p, не требуетс ...
  • 2016: Конец ночи / Hell (Тим Фельбаум / Tim Fehlbaum, ужасы, фантастика, тр ...
  • Камень (Вячеслав Каминский, триллер, 2012) [HDRip, не требуется]
  • Ржевский против Наполеона (Марюс Вайсберг, комедия, 2012) [DVD9, Не требует ...
  • Схватка / The Grey (Джо Карнахан / Joe Carnahan) [2012, США, боевик, трилле ...
  • Ева: Искусственный разум / Eva (Кике Маильо, фантастика, фэнтези, драма, 20 ...
  • Игра на выживание / Gone (Эйтор Далия, триллер, драма, 2012) [DVD5, Професс ...
  • Экстрасенс / The Awakening (Ник Мерфи, ужасы, триллер, 2011) [DVD9, Професс ...
  • Мужчины в большом городе 2 / Männerherzen... und die ganz ganz große Liebe ...
  • Самоубийцы (Егор Баранов, комедия, 2012) [DVD9, Не требуется]
  • Фантом / The Darkest Hour ( Крис Горак, фантастика, триллер, 2011) [DVD9, п ...
  • Zолушка (Сергей Иванов, комедия, мелодрама, 2012) [DVD9, Не требуется]
  • Свидание (Юсуп Бахшиев, комедия, 2012) [DVD9, Не требуется]
  • Хижина в лесу / The Cabin in the Woods (Дрю Годдард, Ужасы, фантастика, три ...
  • Информация
    Посетители, находящиеся в группе Гости, не могут оставлять комментарии к данной публикации.