вход на сайт

Имя пользователя :
Пароль :

Восстановление пароля Регистрация
Смешарики. Начало (Денис Чернов, мультфильм, комедия, приключения, семейный, 2011) [DVD9, Не требуется]
Рейтинг:
(голосов: 1)



[img]{THEME}/images/logopost.png[/img]



Смешарики. Начало
«Все по-взрослому!»
Год выпуска: 2011
Страна: Россия
Производство: Базелевс Продакшн, Студия Компьютерной анимации «Петербург»
Жанр: мультфильм, комедия, приключения, семейный

Перевод: Не требуется
Субтитры: Отсутствуют
Режиссёр: Денис Чернов
В ролях: Вадим Бочанов, Сергей Мардарь, Антон Виноградов, Светлана Письмиченко, Владимир Постников, Михаил Черняк, Ксения Бржезовская, Михаил Хрусталев, Владимир Маслаков, Андрей Лёвин
Описание: Такую экстремальную историю про Смешариков вы не могли себе представить: покинув свою уютную страну, Смешарики оказываются в современном мегаполисе в роли супергероев! Зачем? Они приняли очень важное для себя решение — спасти мир от нависшей угрозы. Этот «ответственный» шаг приводит к самому захватывающему приключению в их жизни!

Бонусы: Галерея, от создателей, 4 мультфильма, игры "пазл" и "найди отличия"
Качество: DVD9
Продолжительность: 01:27:12
Меню: русское анимированное и озвученное

Формат: DVD Video
Видео кодек: MPEG2
Аудио кодек: AC3
Формат видео: PAL 16:9 (720x576) VBR, Auto Pan&Scan
Формат аудио: Русский, AC-3, 48,0 КГц, 384 Кбит/сек, 6 каналов
"MediaInfo" ▼TextОбщее
Полное имя : G:Новинки 2012Smeshariki.Nachalo.2011.DVD9VIDEO_TSVTS_01_2.VOB
Формат : MPEG-PS
Размер файла : 1024 Мбайт
Продолжительность : 23 м.
Общий поток : 6081 Кбит/сек
Видео
Идентификатор : 224 (0xE0)
Формат : MPEG Video
Версия формата : Version 2
Профиль формата : [email protected]
Параметр BVOP формата : Да
Параметр матрицы формата : По умолчанию
Параметр GOP формата : M=3, N=12
Продолжительность : 23 м.
Вид битрейта : Переменный
Битрейт : 5576 Кбит/сек
Максимальный битрейт : 6952 Кбит/сек
Ширина : 720 пикселей
Высота : 576 пикселей
Соотношение сторон : 16:9
Частота кадров : 25,000 кадров/сек
Стандарт вещания : PAL
Цветовое пространство : YUV
Субдискретизация насыщенности : 4:2:0
Битовая глубина : 8 бит
Тип развёртки : Чересстрочная
Порядок развёртки : Нижнее поле первое
Метод сжатия : С потерями
Бит/(Пиксели*Кадры) : 0.538
Размер потока : 939 Мбайт (92%)
Аудио
Идентификатор : 189 (0xBD)-128 (0x80)
Формат : AC-3
Формат/Информация : Audio Coding 3
Расширение режима : CM (complete main)
Режим смешивания : DVD-Video
Продолжительность : 23 м.
Вид битрейта : Постоянный
Битрейт : 384 Кбит/сек
Каналы : 6 каналов
Расположение каналов : Front: L C R, Side: L R, LFE
Частота : 48,0 КГц
Битовая глубина : 16 бит
Метод сжатия : С потерями
Задержка видео : -592 мс.
Размер потока : 64,7 Мбайт (6%)"DVDInfo" ▼TextTitle:
Size: 5.54 Gb ( 5 809 378 KBytes ) - DVD-9
Enabled regions: 1, 2, 3, 4, 5, 6, 7, 8
VTS_01 :
Play Length: 00:00:44+00:00:04+00:06:34+00:23:12+00:10:27+01:27:12
Video: PAL 16:9 (720x576) VBR, Auto Pan&Scan
Audio:
Not specified (Dolby AC3, 6 ch)
Subtitles:
Not specified
Menu Video:
PAL 16:9 (720x576) VBR
Auto Pan&Scan
Menu Audio:
Not specified (Dolby AC3, 6 ch)
Menu Subtitles:
Not specified
Menu English Language Unit :
Root Menu
Subpicture Menu
Audio Menu
Chapter (PTT) Menu
"Скриншоты меню" ▼ "Скриншоты доп. материалов" ▼
Дата премьеры (мир): 22 декабря 2011
Дата премьеры (РФ): 22 декабря 2011, «Каропрокат»


Стол заказов POWER | Отзывы | Вступление в POWER



7d7d6519e2359fa267dafe5bfcce5508d0a4fea5Смешарики. Начало (Денис Чернов, мультфильм, комедия, приключения, семейный, 2011) [DVD9, Не требуется] Смешарики. Начало (Денис Чернов, мультфильм, комедия, приключения, семейный, 2011) [DVD9, Не требуется] " />

Аплоадер: Админ, дата: 28-01-2012, 23:26, торрент скачан: 359 раз

Понравилась раздача? Посмотрите эти:
  • О чём молчат девушки (Карен Оганесян, Комедия, 2013) [DVD5 R5, Не требуется ...
  • Смешарики. Начало (Денис Чернов, мультфильм, комедия, приключения, семейный ...
  • Смешарики. Начало (Денис Чернов, мультфильм, комедия, приключения, семейный ...
  • [3D] Смешарики. Начало (Денис Чернов, Мультфильм, 2011) [BDrip, Дублированн ...
  • Ты и я/You and I (Роланд Жоффе, мелодрама, комедия, 2010) [DVD5, Оригинал]
  • Смешарики. Начало (Денис Чернов, Мелодрама, 2011) [BDRip 720p, Не требуется ...
  • Смешарики. Начало (Денис Чернов, Мелодрама, 2011) [BDRip 1080p, Не требуетс ...
  • Гарри Поттер и Дары смерти: Часть 1 / Harry Potter and the Deathly Hallows: ...
  • Притворись моей женой / Just Go with It (Дэннис Дуган, мелодрама, комедия, ...
  • Балбесы / Olsen Banden pa de bonede gulve (Юрген Лердам , мультфильм, комед ...
  • Человек ниоткуда (Дмитрий Фикс, боевик,триллер, 2010) [DVD R5, Оригинал [ли ...
  • Бой с тенью : Последний раунд (Алексей Сидоров) [2011, Россия, боевик, дра ...
  • Высоцкий. Спасибо, что живой (Петр Буслов, драма, биография, 2011) [DVD9, О ...
  • Шпион, выйди вон! / Tinker Tailor Soldier Spy (Томас Альфредсон / Tomas Alf ...
  • Иван Царевич и Серый Волк (Владимир Торопчин, мультфильм, семейный, 2011) [ ...
  • Камень (Вячеслав Каминский, Фантастика, триллер, криминал, 2012) [DVD9, Не ...
  • Смешарики. Начало (Денис Чернов, мультфильм, комедия, 2011) [BDRip, Не треб ...
  • 2016: Конец ночи / Hell (Тим Фельбаум / Tim Fehlbaum, ужасы, фантастика, тр ...
  • Ржевский против Наполеона (Марюс Вайсберг, комедия, 2012) [DVD9, Не требует ...
  • Хранитель времени / Hugo (Мартин Скорсезе, фэнтези, драма, детектив, приклю ...
  • Ева: Искусственный разум / Eva (Кике Маильо, фантастика, фэнтези, драма, 20 ...
  • Клятва / The Vow (Майкл Сакси, драма, мелодрама, 2012) [DVD5, Профессиональ ...
  • Экстрасенс / The Awakening (Ник Мерфи, ужасы, триллер, 2011) [DVD9, Професс ...
  • Мужчины в большом городе 2 / Männerherzen... und die ganz ganz große Liebe ...
  • Смешарики. Начало (Денис Чернов, мультфильм, комедия, семейный, 2011) [HDRi ...
  • Информация
    Посетители, находящиеся в группе Гости, не могут оставлять комментарии к данной публикации.