вход на сайт

Имя пользователя :
Пароль :

Восстановление пароля Регистрация
То лето страсти / Un été brûlant (Филипп Гаррель, драма, 2011) [DVD9, Профессиональный (многоголосный)]
Рейтинг:
(голосов: 1)



[img]{THEME}/images/logopost.png[/img]



То лето страсти / Un été brûlant

Год выпуска: 2011
Страна: Франция , Италия , Швейцария
Производство: Angoa-Agicoa, Canal+ [fr], Centre National de la Cinématographie (CNC), Ciné, Cinémage 5, Cofinova 4, Eurimages, Faro Film (II), Office Fédéral de la Culture, Prince Film, Procirep, Programme MEDIA de la Communauté Européenne, Région Ile-de-France, Radiotelevisione Svizzera Italiana (RTSI), Rectangle Productions, Schweizerische Radio- und Fernsehgesellschaft (SRG), Wild Bunch
Жанр: Драма
Продолжительность: 01:31:15
Перевод: Профессиональный (многоголосный), Русский, Оригинал
Субтитры: русские

Режиссёр: Филипп Гаррель
В ролях: Моника Беллуччи, Луи Гаррель, Селин Саллетт, Жером Робар, Vladislav Galard, Vincent Macaigne, Морис Гаррель

Описание: Художник страдает после того, как его жена, актриса, покинула его. Герой нашёл свой выход: самоубийство в автокатастрофе, и теперь, оглядываясь назад, вспоминает о бурных страстях, ярких и настоящих чувствах, которые сопутствовали роману с его бывшей.


IMDB: IMDb: 5.00 (110)
КиноПоиск: 5.453 (129)

Бонусы:
1) Трейлер
2) Фотогалерея
3) Анонсы новых фильмов
4) Фильмографии

Качество: DVD9 R5
Формат: DVD-Video
Видео кодек: MPEG2
Аудио кодек: AC3
Формат видео: PAL 16:9 (720x576) VBR, Auto Letterboxed
Формат аудио #1: Russian (Dolby AC3, 6 ch) 448 Кбит/сек, 48,0 КГц
Формат аудио #2: FR (Dolby AC3, 6 ch) 448 Кбит/сек, 48,0 КГц
Формат аудио #3: Russian (DTS , 6 ch , 24 bit) 755 Кбит/сек, 48,0 КГц

"Mediainfo" ▼Общее
Полное имя : D:_filmsUN ETE BRULANTVIDEO_TSVTS_05_1.VOB
Формат : MPEG-PS
Размер файла : 1024 Мбайт
Продолжительность : 18 м.
Режим общего битрейта : Переменный
Общий поток : 7805 Кбит/сек
Видео
Идентификатор : 224 (0xE0)
Формат : MPEG Video
Версия формата : Version 2
Профиль формата : [email protected]
Параметр BVOP формата : Да
Параметр матрицы формата : По умолчанию
Параметр GOP формата : M=3, N=12
Продолжительность : 18 м.
Вид битрейта : Переменный
Битрейт : 6000 Кбит/сек
Максимальный битрейт : 8000 Кбит/сек
Ширина : 720 пикселей
Высота : 576 пикселей
Соотношение сторон : 16:9
Частота кадров : 25,000 кадров/сек
Стандарт вещания : PAL
Цветовое пространство : YUV
Субдискретизация насыщенности : 4:2:0
Битовая глубина : 8 бит
Тип развёртки : Прогрессивная
Метод сжатия : С потерями
Бит/(Пиксели*Кадры) : 0.579
Размер потока : 787 Мбайт (77%)
Аудио #1
Идентификатор : 189 (0xBD)-128 (0x80)
Формат : AC-3
Формат/Информация : Audio Coding 3
Расширение режима : CM (complete main)
Режим смешивания : DVD-Video
Продолжительность : 18 м.
Вид битрейта : Постоянный
Битрейт : 448 Кбит/сек
Каналы : 6 каналов
Расположение каналов : Front: L C R, Side: L R, LFE
Частота : 48,0 КГц
Битовая глубина : 16 бит
Метод сжатия : С потерями
Размер потока : 58,7 Мбайт (6%)
Аудио #2
Идентификатор : 189 (0xBD)-129 (0x81)
Формат : AC-3
Формат/Информация : Audio Coding 3
Расширение режима : CM (complete main)
Режим смешивания : DVD-Video
Продолжительность : 18 м.
Вид битрейта : Постоянный
Битрейт : 448 Кбит/сек
Каналы : 6 каналов
Расположение каналов : Front: L C R, Side: L R, LFE
Частота : 48,0 КГц
Битовая глубина : 16 бит
Метод сжатия : С потерями
Размер потока : 58,7 Мбайт (6%)
Аудио #3
Идентификатор : 189 (0xBD)-138 (0x8A)
Формат : DTS
Формат/Информация : Digital Theater Systems
Режим смешивания : DVD-Video
Продолжительность : 18 м.
Вид битрейта : Постоянный
Битрейт : 755 Кбит/сек
Каналы : 6 каналов
Расположение каналов : Front: L C R, Side: L R, LFE
Частота : 48,0 КГц
Битовая глубина : 24 бит
Метод сжатия : С потерями
Размер потока : 98,9 Мбайт (10%)

"Скриншоты меню" ▼



Стол заказов POWER | Отзывы | Вступление в POWER


48744044a4667869a8729f0fdf3eff32bfcb46c3То лето страсти / Un été brûlant (Филипп Гаррель, драма, 2011) [DVD9, Профессиональный (многоголосный)] То лето страсти / Un été brûlant (Филипп Гаррель, драма, 2011) [DVD9, Профессиональный (многоголосный)] " />

Аплоадер: Админ, дата: 19-01-2012, 09:52, торрент скачан: 359 раз

Понравилась раздача? Посмотрите эти:
  • Линкольн / Lincoln (Стивен Спилберг, драма, военный, биография, история, 20 ...
  • О чём молчат девушки (Карен Оганесян, Комедия, 2013) [DVD5 R5, Не требуется ...
  • То лето страсти / Un été brûlant (Филипп Гаррель, драма, 2011) [DVDRip-AVC ...
  • Любовь-морковь 3 (Сергей Гинзбург, Комедия, 2011) [DVD5, Оригинал]
  • Гарри Поттер и Дары смерти: Часть 1 / Harry Potter and the Deathly Hallows: ...
  • Притворись моей женой / Just Go with It (Дэннис Дуган, мелодрама, комедия, ...
  • Балбесы / Olsen Banden pa de bonede gulve (Юрген Лердам , мультфильм, комед ...
  • Человек ниоткуда (Дмитрий Фикс, боевик,триллер, 2010) [DVD R5, Оригинал [ли ...
  • Высоцкий. Спасибо, что живой (Петр Буслов, драма, биография, 2011) [DVD9, О ...
  • Шпион, выйди вон! / Tinker Tailor Soldier Spy (Томас Альфредсон / Tomas Alf ...
  • То лето страсти / Un été brûlant (Филипп Гаррель, драма, 2011) [DVDRip, Про ...
  • То лето страсти / Un ete brulant (Филипп Гаррель, драма, 2011) [DVDRip, Про ...
  • Смешарики. Начало (Денис Чернов, мультфильм, комедия, приключения, семейный ...
  • Камень (Вячеслав Каминский, Фантастика, триллер, криминал, 2012) [DVD9, Не ...
  • 2016: Конец ночи / Hell (Тим Фельбаум / Tim Fehlbaum, ужасы, фантастика, тр ...
  • Ева: Искусственный разум / Eva (Кике Маильо, фантастика, фэнтези, драма, 20 ...
  • Клятва / The Vow (Майкл Сакси, драма, мелодрама, 2012) [DVD5, Профессиональ ...
  • Экстрасенс / The Awakening (Ник Мерфи, ужасы, триллер, 2011) [DVD9, Професс ...
  • Мужчины в большом городе 2 / Männerherzen... und die ganz ganz große Liebe ...
  • Американский пирог: Все в сборе / American Reunion (Джон Харвитц, Хейден Шл ...
  • Информация
    Посетители, находящиеся в группе Гости, не могут оставлять комментарии к данной публикации.