вход на сайт

Имя пользователя :
Пароль :

Восстановление пароля Регистрация
Высоцкий. Спасибо, что живой (Петр Буслов, драма, биография, 2011) [DVD9, Оригинал]
Рейтинг:
(голосов: 1)



[img]{THEME}/images/logopost.png[/img]



Высоцкий. Спасибо, что живой
«Два часа настоящей жизни»
Год выпуска: 2011
Страна: Россия
Производство: Дирекция Кино
Жанр: драма, биография

Режиссёр: Петр Буслов
В ролях: Оксана Акиньшина, Сергей Безруков, Андрей Смоляков, Иван Ургант, Максим Леонидов, Андрей Панин, Владимир Ильин, Дмитрий Астрахан, Анна Ардова, Владимир Меньшов

Перевод: Оригинал
Субтитры: Отсутствуют

Описание: Действие фильма разворачивается в 1979 году, когда на одном из концертов Высоцкому становится плохо с сердцем. Он переживает клиническую смерть.



Дата премьеры (мир): 1 декабря 2011
Дата премьеры (РФ): 1 декабря 2011, «WDSSPR»

Скриншоты меню ▼DVDInfo ▼Text
Title:
Size: 7.76 Gb ( 8 138 662 KBytes ) - DVD-9
Enabled regions: 1, 2, 3, 4, 5, 6, 7, 8

VTS_01 :
Play Length: 00:00:01
Video: PAL 16:9 (720x576) VBR, Auto Pan&Scan
Audio:
Russian (Dolby AC3, 2 ch)
Russian (Dolby AC3, 6 ch)
Russian (DTS, 6 ch)

VTS_02 :
Play Length: 02:06:45+00:00:01
Video: PAL 16:9 (720x576) VBR, Auto Pan&Scan
Audio:
Russian (Dolby AC3, 2 ch)
Russian (Dolby AC3, 6 ch)
Russian (DTS, 6 ch)

VTS_03 :
Play Length: 00:00:01+00:24:59+00:03:12+00:03:44+00:02:19+00:02:15
Video: PAL 16:9 (720x576) VBR, Auto Pan&Scan
Audio:
Russian (Dolby AC3, 2 ch)

VTS_04 :
Play Length: 00:00:12
Video: PAL 16:9 (720x576) VBR, Auto Pan&Scan
Audio:
Russian (Dolby AC3, 2 ch)

Menu Video:
NTSC 4:3 (720x480) VBR
Auto Pan&Scan, Auto Letterboxed
Menu Russian Language Unit :
Root Menu
Angle menu
Chapter (PTT) Menu

MediaInfo ▼Text
Полное имя : D:СкачкавысоцкийVIDEO_TSVTS_02_3.VOB
Формат : MPEG-PS
Размер файла : 1 024 MiB
Продолжительность : 18mn 59s
Режим общего битрейта : Variable
Общий поток : 7 533 Kbps

Video
Идентификатор : 224 (0xE0)
Формат : MPEG Video
Версия формата : Version 2
Профиль формата : [email protected]
Параметр BVOP формата : Yes
Параметр матрицы формата : Default
Параметр GOP формата : M=3, N=12
Продолжительность : 18mn 59s
Вид битрейта : Variable
Битрейт : 5 988 Kbps
Максимальный битрейт : 8 400 Kbps
Ширина : 720 pixels
Высота : 576 pixels
Соотношение сторон : 16:9
Частота кадров : 25.000 fps
Стандарт вещания : PAL
Цветовое пространство : YUV
Субдискретизация насыщенности : 4:2:0
Битовая глубина : 8 bits
Тип развёртки : Interlaced
Порядок развёртки : Top Field First
Метод сжатия : Lossy
Бит/(Пиксели*Кадры) : 0.578
Размер потока : 814 MiB (79%)

Audio #1
Идентификатор : 189 (0xBD)-128 (0x80)
Формат : AC-3
Формат/Информация : Audio Coding 3
Расширение режима : CM (complete main)
Режим смешивания : DVD-Video
Продолжительность : 18mn 59s
Вид битрейта : Constant
Битрейт : 192 Kbps
Каналы : 2 channels
Расположение каналов : Front: L R
Частота : 48.0 KHz
Битовая глубина : 16 bits
Метод сжатия : Lossy
Задержка видео : -192ms
Размер потока : 26.1 MiB (3%)

Audio #2
Идентификатор : 189 (0xBD)-129 (0x81)
Формат : AC-3
Формат/Информация : Audio Coding 3
Расширение режима : CM (complete main)
Режим смешивания : DVD-Video
Продолжительность : 18mn 59s
Вид битрейта : Constant
Битрейт : 448 Kbps
Каналы : 6 channels
Расположение каналов : Front: L C R, Side: L R, LFE
Частота : 48.0 KHz
Битовая глубина : 16 bits
Метод сжатия : Lossy
Задержка видео : -288ms
Размер потока : 60.9 MiB (6%)

Audio #3
Идентификатор : 189 (0xBD)-138 (0x8A)
Формат : DTS
Формат/Информация : Digital Theater Systems
Режим смешивания : DVD-Video
Продолжительность : 18mn 59s
Вид битрейта : Constant
Битрейт : 755 Kbps
Каналы : 6 channels
Расположение каналов : Front: L C R, Side: L R, LFE
Частота : 48.0 KHz
Битовая глубина : 24 bits
Метод сжатия : L
9738b49caee289c0d52011094792e63f327086e9Высоцкий. Спасибо, что живой (Петр Буслов, драма, биография, 2011) [DVD9, Оригинал] Высоцкий. Спасибо, что живой (Петр Буслов, драма, биография, 2011) [DVD9, Оригинал] " />

Аплоадер: Админ, дата: 6-01-2012, 02:36, торрент скачан: 359 раз

Понравилась раздача? Посмотрите эти:
  • Андроид / App (Бобо Боерманс, триллер, 2013) [DVD9 R5, Дубляж]
  • Даю год / I Give It a Year (Дэн Мазер, мелодрама, комедия, 2013) [DVD9 R5, ...
  • Измена (Кирилл Серебренников, Триллер, драма, 2012) [DVD9, Не требуется, Su ...
  • Высоцкий. Спасибо, что живой (Петр Буслов, драма, биография, 2011) [320x240 ...
  • Весенние надежды / Hope Springs (Дэвид Фрэнкел, Драма, мелодрама, комедия, ...
  • Нежность / La délicatesse (Давид Фонкинос, Стефан Фонкинос, мелодрама, коме ...
  • Фантом / The Darkest Hour ( Крис Горак, фантастика, триллер, 2011) [DVD5, п ...
  • Медальон / Stolen (Саймон Уэст, Боевик, триллер, 2012) [DVD9, Дубляж, Ориги ...
  • Патруль / End of Watch (Дэвид Эйр, Триллер, драма, криминал, 2012) [DVD9, Д ...
  • Жить (Василий Сигарев, Драма, 2012) [DVD9, Не требуется, Sub]
  • Грэбберсы / Grabbers (Джон Райт, фантастика, триллер, комедия, 2011) [DVD9, ...
  • Конвой (Алексей Мизгирёв, Драма, 2012) [DVD9, Не требуется, Sub]
  • Помогите Стать Отцом / Not Suitable For Children (Питер Темплмен, Мелодрама ...
  • Шпион, выйди вон! / Tinker Tailor Soldier Spy (Томас Альфредсон / Tomas Alf ...
  • Высоцкий. Спасибо, что живой (Петр Буслов, драма, биография, 2011) [HDRip, ...
  • Высоцкий. Спасибо, что живой (Петр Буслов, драма, биография, 2011) [BDRip, ...
  • Ёлки 2 (Дмитрий Киселёв, Александр Баранов, Александр Котт, Комедия , 2011) ...
  • [iPhone, iPod, iPad]Высоцкий. Спасибо, что живой (Петр Буслов) [2011 г., др ...
  • Высоцкий. Спасибо, что живой (Петр Буслов, драма, биография, 2011) [HDRip, ...
  • 2016: Конец ночи / Hell (Тим Фельбаум / Tim Fehlbaum, ужасы, фантастика, тр ...
  • На грани / Man on a Ledge (Асгер Лет, триллер, криминал, 2012) [DVD9, Полно ...
  • Экстрасенс / The Awakening (Ник Мерфи, ужасы, триллер, 2011) [DVD9, Професс ...
  • Тайны старого отеля / The Innkeepers (Ти Уэст, ужасы, триллер, 2011) [DVD9, ...
  • Ялта-45 // Эпизоды с 1 по 4 (из 4) (боевик, военный, 2012) [DVD9, Не требуе ...
  • Банкомат / ATM (Дэвид Брукс, Ужасы, Триллер, 2011) [DVD9, Профессиональный ...
  • Информация
    Посетители, находящиеся в группе Гости, не могут оставлять комментарии к данной публикации.