вход на сайт

Имя пользователя :
Пароль :

Восстановление пароля Регистрация
Бой с тенью : Последний раунд (Алексей Сидоров) [2011, Россия, боевик, драма, криминал, приключения, DVD9] [Лицензия]
Рейтинг:
(голосов: 1)



[img]{THEME}/images/logopost.png[/img]



Бой с тенью 3D: Последний раунд
«Последний раунд решает всё»

Год выпуска:2011
Страна:Россия
Производство:Централ Партнершип
Жанр:боевик, драма, криминал, приключения

Режиссёр:Алексей Сидоров
В ролях:Денис Никифоров, Андрей Панин, Елена Панова, Бату Хасиков, Михаил Горевой, Дмитрий Шевченко, Ольга Дибцева, Софья Мицкевич

Перевод: Оригинал [Лицензия]
Субтитры:Отсутствуют
"Скриншоты меню" ▼

Описание:Боксер-чемпион Артем Колчин достиг всех мыслимых вершин и стал национальным героем. На ринг он больше не выходит, предпочитая тренерскую работу и бурную светскую жизнь с постоянным мельканием на ТВ, тусовками и интрижками. А дома его по утрам встречают дочка и жена Вика, которая больше не узнает в нем того Артема, которого она когда-то полюбила…

Внешне благополучному существованию Колчина приходит конец, когда его подопечного чуть не убивает в бою знаменитый Куэрте. Артем подозревает, что тот использует некую запрещенную технику. За доказательствами ему приходится отправиться в Гонконг, где его ждет старый знакомый Вагит Валиев: он знает о Куэрте то, чего не знает больше ни один человек. Чтобы победить, Артему придется снова выйти на ринг.

IMDB: рейтинг
КиноПоиск: рейтинг

Сэмпл

Качество: DVD R5
Продолжительность:02:01:26

Формат: DVD Video

Видео: PAL 16:9 (720x576) VBR, Auto Pan&Scan
Аудио:Russian (Dolby AC3, 6 ch 448 Кбит/сек)

Дата премьеры (мир):24 ноября 2011
Дата премьеры (РФ):17 ноября 2011, «Централ Партнершип»


MI ▼Общее
Полное имя : G:Новинки 2011Boj.s.tenju.3D.Poslednij.raund.2011.DVD9VIDEO_TSVTS_03_1.VOB
Формат : MPEG-PS
Размер файла : 1024 Мбайт
Продолжительность : 17 м.
Общий поток : 7991 Кбит/сек

Видео
Идентификатор : 224 (0xE0)
Формат : MPEG Video
Версия формата : Version 2
Профиль формата : [email protected]
Параметр BVOP формата : Да
Параметр матрицы формата : По умолчанию
Параметр GOP формата : M=3, N=12
Продолжительность : 17 м.
Битрейт : 7384 Кбит/сек
Максимальный битрейт : 7400 Кбит/сек
Ширина : 720 пикселей
Высота : 576 пикселей
Соотношение сторон : 16:9
Частота кадров : 25,000 кадров/сек
Стандарт вещания : PAL
Цветовое пространство : YUV
Субдискретизация насыщенности : 4:2:0
Битовая глубина : 8 бит
Тип развёртки : Прогрессивная
Метод сжатия : С потерями
Бит/(Пиксели*Кадры) : 0.712
Размер потока : 946 Мбайт (92%)

Аудио
Идентификатор : 189 (0xBD)-128 (0x80)
Формат : AC-3
Формат/Информация : Audio Coding 3
Расширение режима : CM (complete main)
Режим смешивания : DVD-Video
Продолжительность : 17 м.
Вид битрейта : Постоянный
Битрейт : 448 Кбит/сек
Каналы : 6 каналов
Расположение каналов : Front: L C R, Side: L R, LFE
Частота : 48,0 КГц
Битовая глубина : 16 бит
Метод сжатия : С потерями
Размер потока : 57,4 Мбайт (6%)


DVDInfo ▼Title:
Size: 7.77 Gb ( 8 150 506 KBytes ) - DVD-9
Enabled regions: 1, 2, 3, 4, 5, 6, 7, 8

VTS_01 :
Play Length: 00:00:15
Video: PAL 4:3 (720x576) VBR
Audio:
Not specified (Dolby AC3, 2 ch)

VTS_02 :
Play Length: 00:00:08
Video: PAL 16:9 (720x576) VBR, Auto Pan&Scan
Audio:
Not specified (Dolby AC3, 2 ch)

VTS_03 :
Play Length: 02:01:26
Video: PAL 16:9 (720x576) VBR, Auto Pan&Scan
Audio:
Russian (Dolby AC3, 6 ch)

VTS_04 :
Play Length: 00:01:34
Video: PAL 16:9 (720x576) VBR, Auto Pan&Scan
Audio:
Not specified (Dolby AC3, 2 ch)

VTS_05 :
Play Length: 00:01:19
Video: PAL 16:9 (720x576) VBR, Auto Pan&Scan
Audio:
Not specified (Dolby AC3, 2 ch)

VTS_06 :
Play Length: 00:02:00
Video: PAL 16:9 (720x576) VBR, Auto Pan&Scan
Audio:
Not specified (Dolby AC3, 2 ch)

VTS_07 :
Play Length: 00:02:00
Video: PAL 16:9 (720x576) VBR, Auto Pan&Scan
Audio:
Not specified (Dolby AC3, 2 ch)

VTS_08 :
Play Length: 00:01:57
Video: PAL 16:9 (720x576) VBR, Auto Pan&Scan
Audi
581e87249e4ce63c2bfe8b4178007d96e8ea6345 Бой с тенью : Последний раунд (Алексей Сидоров) [2011, Россия, боевик, драма, криминал, приключения, DVD9] [Лицензия] Бой с тенью : Последний раунд (Алексей Сидоров) [2011, Россия, боевик, драма, криминал, приключения, DVD9] [Лицензия] " />

Аплоадер: Админ, дата: 23-12-2011, 20:11, торрент скачан: 359 раз

Понравилась раздача? Посмотрите эти:
  • Бой с тенью 3D: Последний раунд (Алексей Сидоров, боевик, драма, криминал, ...
  • Бой с тенью 3D: Последний раунд (Алексей Сидоров, боевик, 2011) [BDRip-AVC, ...
  • Бой с тенью 3D: Последний раунд (Алексей Сидоров, боевик, драма, криминал, ...
  • Бой с тенью 3D: Последний раунд (Алексей Сидоров, боевик, драма, криминал, ...
  • Бой с тенью 3D: Последний раунд (Алексей Сидоров, боевик, драма, криминал, ...
  • Бой с тенью 3D: Последний раунд (Алексей Сидоров, боевик, драма, криминал, ...
  • На крючке!(Наталья Углицких, мелодрама, комедия, 2011) [DVD9, Оригинал [лиц ...
  • Беременный (Сарик Андреасян, Комедия, 2011) [DVD9, Оригинал]
  • Бой с тенью 3D: Последний раунд (Алексей Сидоров, боевик, драма, криминал, ...
  • Бой с тенью 3D: Последний раунд (Алексей Сидоров, боевик, драма, криминал, ...
  • [iPhone, iPod, iPad]Бой с тенью 3: Последний раунд (Алексей Сидоров) [2011, ...
  • Бой с тенью 3D: Последний раунд (Алексей Сидоров, боевик, драма, криминал, ...
  • Бой с тенью 3D: Последний раунд (Алексей Сидоров, боевик, драма, криминал, ...
  • [3D] Бой с тенью 3D: Последний раунд (Алексей Сидоров) [2011, боевик, драма ...
  • Воин / Warrior (Гэвин О’Коннор, боевик, драма, спорт, 2011) [DVD9, Професс ...
  • Неприкасаемые / Les Lyonnais (Доливье Маршаль, драма, криминал, 2011) [DVD9 ...
  • Фантом / The Darkest Hour ( Крис Горак, фантастика, триллер, 2011) [DVD9, п ...
  • Zолушка (Сергей Иванов, комедия, мелодрама, 2012) [DVD9, Не требуется]
  • 1+1 / Неприкасаемые / Intouchables (Оливье Накаш, Эрик Толедано, драма, ком ...
  • Бой с тенью 3D: Последний раунд (Алексей Сидоров, боевик, драма, криминал, ...
  • Информация
    Посетители, находящиеся в группе Гости, не могут оставлять комментарии к данной публикации.