вход на сайт

Имя пользователя :
Пароль :

Восстановление пароля Регистрация
Время / In Time (Эндрю Никкол, фантастика, триллер, криминал, 2011) [DVD5, Профессиональный (дублированный) [Лицензия] + Украинский]
Рейтинг:
(голосов: 1)



[img]{THEME}/images/logopost.png[/img]



Время / In Time


Год выпуска: 2011
Страна: США
Производство: New Regency Pictures, Regency Enterprises, Strike Entertainment
Жанр: фантастика, триллер, драма, мелодрама, криминал

Режиссёр: Эндрю Никкол / Andrew Niccol
В ролях: Джастин Тимберлэйк, Аманда Сайфред, Киллиан Мёрфи, Алекс Петтифер, Шайло Уствальд, Джонни Галэки, Колин МакГерк, Оливия Уайлд, Уилл Харрис, Майкл Уильям Фриман

Перевод: Профессиональный (дублированный) [Лицензия] + Украинский
Субтитры: русские

Описание:
Добро пожаловать в мир, где время стало единственной и самой твердой валютой, где люди генетически запрограммированы так, что в 25 лет перестают стареть. Правда, последующие годы стоят денег. И вот богатые становятся практически бессмертными, а бедные, как всегда, обречены сражаться за жизнь.
Уилл, бунтарь из гетто, несправедливо обвинен в убийстве с целью грабежа времени и вынужден, захватив заложницу, пуститься в бега. Так, ежеминутно рискуя жизнью, эти двое становятся грозным оружием в борьбе с системой. Но вот вопрос: кто кого? А может быть, в дело вмешается третья сила?.

Скриншоты меню: ▼
MediaInfo: ▼
General
Complete name : D:_VideoVremia.2011.DVD-5.DRGVIDEO_TSVTS_01_1.VOB
Format : MPEG-PS
File size : 1 024 MiB
Duration : 25mn 9s
Overall bit rate mode : Variable
Overall bit rate : 5 692 Kbps

Video
ID : 224 (0xE0)
Format : MPEG Video
Format version : Version 2
Format profile : [email protected]
Format settings, BVOP : Yes
Format settings, Matrix : Custom
Format settings, GOP : M=2, N=12
Duration : 25mn 9s
Bit rate mode : Variable
Bit rate : 4 811 Kbps
Maximum bit rate : 7 500 Kbps
Width : 720 pixels
Height : 576 pixels
Display aspect ratio : 16:9
Frame rate : 25.000 fps
Standard : PAL
Color space : YUV
Chroma subsampling : 4:2:0
Bit depth : 8 bits
Scan type : Interlaced
Scan order : Top Field First
Compression mode : Lossy
Bits/(Pixel*Frame) : 0.464
Stream size : 865 MiB (85%)

Audio #1
ID : 189 (0xBD)-128 (0x80)
Format : AC-3
Format/Info : Audio Coding 3
Mode extension : CM (complete main)
Muxing mode : DVD-Video
Duration : 25mn 8s
Bit rate mode : Constant
Bit rate : 384 Kbps
Channel(s) : 6 channels
Channel positions : Front: L C R, Side: L R, LFE
Sampling rate : 48.0 KHz
Bit depth : 16 bits
Compression mode : Lossy
Stream size : 69.1 MiB (7%)

Audio #2
ID : 189 (0xBD)-130 (0x82)
Format : AC-3
Format/Info : Audio Coding 3
Mode extension : CM (complete main)
Muxing mode : DVD-Video
Duration : 25mn 8s
Bit rate mode : Constant
Bit rate : 384 Kbps
Channel(s) : 6 channels
Channel positions : Front: L C R, Side: L R, LFE
Sampling rate : 48.0 KHz
Bit depth : 16 bits
Compression mode : Lossy
Stream size : 69.1 MiB (7%)

Menu
DVDinfo: ▼Title: Bob
Size: 4.09 Gb ( 4 289 818 KBytes ) - DVD-5
Enabled regions: 1, 2, 3, 4, 5, 6, 7, 8

VTS_01 :
Play Length: 01:44:45
Video: PAL 16:9 (720x576) VBR, Auto Pan&Scan
Audio:
Russian (Dolby AC3, 6 ch)
Russian (DTS, 6 ch)
Subtitles:
Russian
Russian

VTS_02 :
Play Length:
Video: PAL 16:9 (720x576) VBR, Auto Pan&Scan
Audio:
Russian (Dolby AC3, 6 ch)

VTS_03 :
Play Length:
Video: PAL 16:9 (720x576) VBR, Auto Pan&Scan
Audio:
English (Dolby AC3, 2 ch)
Subtitles:
Russian
Ukrainian

VTS_04 :
Play Length: 00:00:02
Video: PAL 16:9 (720x576) VBR, Auto Pan&Scan
Audio:
Not specified (Dolby AC3, 6 ch)
Not specified (Dolby AC3, 6 ch)
Not specified (Dolby AC3, 6 ch)
Russian (Dolby AC3, 2 ch)
Subtitles:
Russian
Russian
Качество: DVD5 (Сжатый)
Продолжительность: 01:44:45

Доп. материалы: нет
Контейнер: DVD Video
Видео кодек: MPEG2
Аудио кодек: AC3
Видео: PAL 16:9 (720x576) VBR, Auto Pan&Scan
Аудио1: Russian (Dolby AC3, 6 ch) 448 Кбит/сек, 48,0 КГц
Аудио2: Ukrainian (Dolby AC3, 6 ch) 448 Кбит/сек, 48,0 КГц

Дата премьеры (мир): 30 сентября 2011
Дата премьеры (РФ): 27 октября 20
1c30610a0c045fe562d1f1e978c8f0ac487e190aВремя / In Time (Эндрю Никкол, фантастика, триллер, криминал, 2011) [DVD5, Профессиональный (дублированный) [Лицензия] + Украинский] Время / In Time (Эндрю Никкол, фантастика, триллер, криминал, 2011) [DVD5, Профессиональный (дублированный) [Лицензия] + Украинский] " />

Аплоадер: Админ, дата: 2-12-2011, 21:09, торрент скачан: 359 раз

Понравилась раздача? Посмотрите эти:
  • Время / In Time (Эндрю Никкол, Фантастика, триллер, драма, мелодрама, крими ...
  • Время / In Time (Эндрю Никкол, фантастика, триллер, криминал, 2011) [DVDRip ...
  • Время / In Time (Эндрю Никкол, фантастика, триллер, криминал, 2011) [HDRip- ...
  • Время / In Time (Эндрю Никкол, фантастика, триллер, драма, мелодрама, крими ...
  • МЫ. Верим в любовь / W.E. (Мадонна, драма, мелодрама, 2011) [DVD5, Професси ...
  • Время / In Time (Эндрю Никкол, Фантастика, триллер, драма, 2011) [BDRemux 1 ...
  • Дом (Олег Погодин, драма, криминал, 2011) [DVD5, Не требуется [лицензия]]
  • Пеликан / Nicostratos le pelican (Оливье Орле, драма, комедия, 2011) [DVDR5 ...
  • Время / In Time (Эндрю Никкол, Фантастика, триллер, криминал, 2011) [480x20 ...
  • Время / In Time (Эндрю Никкол, фантастика, триллер, криминал, 2011) [DVDRip ...
  • Время / In Time (Эндрю Никкол, фантастика, триллер, криминал, 2011) [DVDRip ...
  • Время / In Time (Эндрю Никкол, фантастика, триллер, драма, мелодрама, крими ...
  • Время / In Time (Эндрю Никкол, фантастика, триллер, криминал, 2011) [HDRip, ...
  • Время / In Time (Эндрю Никкол, фантастика, триллер, криминал, 2011) [640 x ...
  • Время / In Time (Эндрю Никкол, фантастика, триллер, криминал, 2011) [HDRip, ...
  • Время / In Time (Эндрю Никкол, фантастика, триллер, криминал, 2011) [HDRip, ...
  • Время / In Time (Эндрю Никкол, фантастика, триллер, драма, мелодрама, крими ...
  • Время / In Time (Эндрю Никкол, фантастика, триллер, криминал, 2011) [HDRip, ...
  • Время / In Time (Эндрю Никкол, фантастика, триллер, криминал, 2011) [BDRip, ...
  • Белоснежка: Месть гномов / Mirror Mirror (Тарсем Синх, фэнтези, драма, коме ...
  • Информация
    Посетители, находящиеся в группе Гости, не могут оставлять комментарии к данной публикации.