вход на сайт

Имя пользователя :
Пароль :

Восстановление пароля Регистрация
Пеликан / Nicostratos le pelican (Оливье Орле, драма, комедия, 2011) [DVDR5, Профессиональный (дублированный) [Лицензия] + Оригинал]
Рейтинг:
(голосов: 1)



[img]{THEME}/images/logopost.png[/img]



Пеликан / Nicostratos le pélican


Год выпуска: 2011
Страна: Франция, Греция
Производство: Wesh Wesh Productions, Studio 37, Nexus Factory
Жанр: драма, комедия

Режиссёр: Оливье Орле / Olivier Horlait
В ролях: Эмир Кустурица, Тибо Ле Геллек, Джейд-Роуз Паркер, Франсуа-Ксавье Демезон, Геннадиос Пацис, Нтинос Понтикопоулос, Димитрис Сарикизоуглоу, Сократис Пацикас

Перевод: Профессиональный (дублированный) [Лицензия] + Оригинал
Субтитры: русские, украинские

Описание:
После смерти жены мужчина отказывается выходить на улицу и не хочет общаться с единственным сыном. Жизнь теряет смысл, перестает для него существовать. Однажды мальчик находит птенца пеликана, которого решает оставить у себя. Он выкармливает птицу, и между ними завязываются теплые дружеские отношения. Пеликан помогает мальчику вновь обрести своего отца и возродить его к жизни.

Скриншоты меню: ▼
MediaInfo: ▼
General
Complete name : D:_VideoPelikan.2011.DVD-5.DRGVIDEO_TSVTS_03_1.VOB
Format : MPEG-PS
File size : 1 024 MiB
Duration : 20mn 37s
Overall bit rate mode : Variable
Overall bit rate : 6 941 Kbps

Video
ID : 224 (0xE0)
Format : MPEG Video
Format version : Version 2
Format profile : [email protected]
Format settings, BVOP : Yes
Format settings, Matrix : Custom
Duration : 20mn 37s
Bit rate mode : Variable
Bit rate : 6 034 Kbps
Maximum bit rate : 8 904 Kbps
Width : 720 pixels
Height : 576 pixels
Display aspect ratio : 16:9
Frame rate : 25.000 fps
Standard : PAL
Color space : YUV
Chroma subsampling : 4:2:0
Bit depth : 8 bits
Scan type : Interlaced
Scan order : Top Field First
Compression mode : Lossy
Bits/(Pixel*Frame) : 0.582
Stream size : 890 MiB (87%)

Audio #1
ID : 189 (0xBD)-128 (0x80)
Format : AC-3
Format/Info : Audio Coding 3
Mode extension : CM (complete main)
Muxing mode : DVD-Video
Duration : 20mn 37s
Bit rate mode : Constant
Bit rate : 384 Kbps
Channel(s) : 6 channels
Channel positions : Front: L C R, Side: L R, LFE
Sampling rate : 48.0 KHz
Bit depth : 16 bits
Compression mode : Lossy
Stream size : 56.6 MiB (6%)

Audio #2
ID : 189 (0xBD)-129 (0x81)
Format : AC-3
Format/Info : Audio Coding 3
Mode extension : CM (complete main)
Muxing mode : DVD-Video
Duration : 20mn 37s
Bit rate mode : Constant
Bit rate : 384 Kbps
Channel(s) : 6 channels
Channel positions : Front: L C R, Side: L R, LFE
Sampling rate : 48.0 KHz
Bit depth : 16 bits
Compression mode : Lossy
Stream size : 56.6 MiB (6%)

Menu
DVDinfo: ▼Title: Bob
Size: 4.37 Gb ( 4 586 204 KBytes ) - DVD-5
Enabled regions: 1, 2, 3, 4, 5, 6, 7, 8

VTS_01 :
Play Length:
Video: PAL 4:3 (720x576) VBR

VTS_02 :
Play Length:
Video: PAL 16:9 (720x576) VBR, Auto Pan&Scan
Audio:
Russian (Dolby AC3, 6 ch)
Russian (Dolby AC3, 6 ch)
Subtitles:
Not specified
Not specified

VTS_03 :
Play Length: 01:28:26
Video: PAL 16:9 (720x576) VBR, Auto Pan&Scan, Auto Letterboxed
Audio:
Russian (Dolby AC3, 6 ch)
Francais (Dolby AC3, 6 ch)
Subtitles:
Russian
Ukrainian

Menu Video:
NTSC 4:3 (720x480) VBR
Auto Pan&Scan, Auto Letterboxed
Menu English Language Unit :
Root Menu
Качество: DVD5 (Сжатый)
Продолжительность: 01:28:26

Доп. материалы: Русское, статичное, озвученное
Контейнер: DVD Video
Видео кодек: MPEG2
Аудио кодек: AC3
Видео: PAL 16:9 (720x576) VBR, Auto Pan&Scan, Auto Letterboxed
Аудио1: Russian (Dolby AC3, 6 ch) 448 Кбит/сек, 48,0 КГц
Аудио2: Francais(Dolby AC3, 6 ch) 448 Кбит/сек, 48,0 КГц
премьера (мир) 29 июня 2011, ...
премьера (РФ) 21 июля 2011, «West»
релиз на DVD 24 ноября 2011, «West Video», ...



Стол заказов POWER | Отзывы | Вступление в POWER



3068f9947af919f40ba85a18ca207cee04bd0007Пеликан / Nicostratos le pelican (Оливье Орле, драма, комедия, 2011) [DVDR5, Профессиональный (дублированный) [Лицензия] + Оригинал] Пеликан / Nicostratos le pelican (Оливье Орле, драма, комедия, 2011) [DVDR5, Профессиональный (дублированный) [Лицензия] + Оригинал] " />

Аплоадер: Админ, дата: 30-11-2011, 13:33, торрент скачан: 359 раз

Понравилась раздача? Посмотрите эти:
  • Пеликан / Nicostratos le pelican (Оливье Орле, драма, комедия, 2011) [BDRip ...
  • Пеликан / Nicostratos le pelican (Оливье Орле, драма, комедия, 2011) [BDRip ...
  • Пеликан / Nicostratos le pelican (Оливье Орле, драма, комедия, 2011) [HDRip ...
  • Невозможное / Lo imposible (Хуан Антонио Байона, триллер, драма, 2012) [DVD ...
  • Любовь на кончиках пальцев / Populaire (Режис Ройнсар, Мелодрама, комедия, ...
  • Пеликан / Nicostratos le pelican (Оливье Орле, драма, комедия, 2011) [HDRip ...
  • Пеликан / Nicostratos le pelican (Оливье Орле, драма, комедия, 2011) [BDRip ...
  • Аполлон 18 / Apollo 18 (Гонсало Лопес-Гальего, ужасы, фантастика, 2011) [DV ...
  • МЫ. Верим в любовь / W.E. (Мадонна, драма, мелодрама, 2011) [DVD5, Професси ...
  • Фантом / The Darkest Hour ( Крис Горак, фантастика, триллер, 2011) [DVD5, п ...
  • Пеликан / Nicostratos le pelican (Оливье Орле, драма, комедия, семейный, 20 ...
  • Форсаж 5 / Fast Five (Джастин Лин, боевик, триллер, драма, криминал, 2011) ...
  • Челюсти 3D / Shark Night 3D (Дэвид Р. Эллис,ужасы, триллер, 2011) [DVD5, Ду ...
  • Дом (Олег Погодин, драма, криминал, 2011) [DVD5, Не требуется [лицензия]]
  • Время / In Time (Эндрю Никкол, фантастика, триллер, криминал, 2011) [DVD5, ...
  • Ёлки 2 (Дмитрий Киселёв, Александр Баранов, Александр Котт, Комедия , 2011) ...
  • Пеликан / Nicostratos le pelican (Оливье Орле, драма, комедия, 2011) [HDRi ...
  • Пеликан / Nicostratos le pelican (Оливье Орле, Комедия, драма, семейный, 20 ...
  • Неприкасаемые / Les Lyonnais (Доливье Маршаль, драма, криминал, 2011) [DVD9 ...
  • Фантом / The Darkest Hour ( Крис Горак, фантастика, триллер, 2011) [DVD9, п ...
  • Белоснежка: Месть гномов / Mirror Mirror (Тарсем Синх, фэнтези, драма, коме ...
  • Ялта-45 // Эпизоды с 1 по 4 (из 4) (боевик, военный, 2012) [DVD9, Не требуе ...
  • Между / Twixt (Френсис Форд Коппола, ужасы, фэнтези, триллер, 2011) [DVD5, ...
  • 1+1 / Неприкасаемые / Intouchables (Оливье Накаш, Эрик Толедано, драма, ком ...
  • Мстители / The Avengers (Джосс Уидон, фантастика, боевик, приключения, 2012 ...
  • Информация
    Посетители, находящиеся в группе Гости, не могут оставлять комментарии к данной публикации.