вход на сайт

Имя пользователя :
Пароль :

Восстановление пароля Регистрация
Парень с Марса (Сергей Осипьян, комедия, 2011) [DVD5, Не требуется]
Рейтинг:
(голосов: 1)



[img]{THEME}/images/logopost.png[/img]



Парень с Марса

Год выпуска: 2011
Страна: Россия
Производство: Твинди
Жанр: комедия
Продолжительность: 01:32:58
Перевод: Не требуется
Субтитры: английские
Меню: русское анимированное и озвученное



Режиссёр: Сергей Осипьян
В ролях: Сергей Аброскин, Ксения Кутепова, Артем Ткаченко, Владас Багдонас, Егор Баринов, Игорь Черневич, Ангелина Миримская, Артем Смола, Игорь Яцко, Никита Емшанов

Описание:
Молодой менеджер Петя Стариков, работающий на гигантской шоколадной фабрике MARZ, не подозревает, что творится за пределами охраняемой территории. Вехи его жизни до поры до времени предсказуемы: задания, поощрения, защиты проектов. Но вот на героя обрушивается шквал неприятностей, удивительных совпадений и удач. С угона машины — такой же, как у сотен сотрудников шоколадной фабрики — начинается новая жизнь Пети…

IMDB: IMDb: 3.70 (40)
КиноПоиск: 4.065 (386)

Премьера (РФ): 5 мая 2011, «Парадиз»
Релиз на DVD: 18 августа 2011, «Новый Диск»

Телевизионная система: PAL
Форматное соотношение: 16:9
Режим дисплея: VBR, Auto Letterboxed
Частота кадров: 25,000 кадр/сек

"Одна из рецензий:" ▼Из жизни марсианских индейцев
Довольно колоритный фильм, выгодно отличающийся на общем безрадостном фоне нашего кинематографа. Авторы вдоволь порезвились создав множество абсолютно безбашенных персонажей и мощный сюрреалистический сюжет. Главным плюсом является то, что во время просмотра практически нельзя предсказать куда занесёт повествование. Также порадовало глумление над героем нашего времени — в виду развала промышленности во всех комедиях и мелодрамах центральный персонаж всегда является сотрудником рекламного агенства, ибо больше ему работать негде. Ну а в конце он само собой этот отдел обязан возглавить. Здесь же авторы от души оплевали этот священный символ карьерного роста и материального благополучия. Нельзя сказать что запала хватило на весь фильм и некоторые моменты особенно в финале смущают, но в целом фильм достойный, особенно порадовал капитан ДПС в халате на фоне грозового неба.

"MediaInfo:" ▼Общее
Полное имя : Парень с Марса [2011г., DVD5]VIDEO_TSVTS_09_1.VOB
Формат : MPEG-PS
Размер файла : 1024 Мбайт
Продолжительность : 26 м.
Общий поток : 5493 Кбит/сек

Видео
Идентификатор : 224 (0xE0)
Формат : MPEG Video
Версия формата : Version 2
Профиль формата : [email protected]
Параметр BVOP формата : Да
Параметр матрицы формата : По умолчанию
Параметры GOP формата : M=3, N=12
Продолжительность : 26 м.
Вид битрейта : Переменный
Битрейт : 4711 Кбит/сек
Номинальный битрейт : 7500 Кбит/сек
Ширина : 720 пикс.
Высота : 576 пикс.
Соотношение сторон : 16:9
Частота кадров : 25,000 кадр/сек
Стандарт вещания : PAL
Цветовое пространство : YUV
Подвыборка цветности : 4:2:0
Битовая глубина : 8 бит
Тип развёртки : Прогрессивная
Метод сжатия : С потерями
Бит/(Пиксели*Кадры) : 0.454
Размер потока : 878 Мбайт (86%)

Аудио #1
Идентификатор : 128 (0x80)
Формат : AC-3
Формат/Информация : Audio Coding 3
Расширение режима : CM (complete main)
Продолжительность : 26 м.
Вид битрейта : Постоянный
Битрейт : 448 Кбит/сек
Канал(ы) : 6 канала(ов)
Расположение каналов : Front: L C R, Side: L R, LFE
Частота : 48,0 КГц
Битовая глубина : 16 бит
Метод сжатия : С потерями
Размер потока : 83,5 Мбайт (8

Аудио #2
Идентификатор : 129 (0x81)
Формат : AC-3
Формат/Информация : Audio Coding 3
Расширение режима : CM (complete main)
Продолжительность : 26 м.
Вид битрейта : Постоянный
Битрейт : 224 Кбит/сек
Канал(ы) : 2 канала(ов)
Расположение каналов : Front: L R
Частота : 48,0 КГц
Битовая глубина : 16 бит
Метод сжатия : С потерями
Размер потока : 41,8 Мбайт (4

Текст #1
Идентификатор : 32 (0x20)
Формат : RLE
Формат/Информация : Run-length encoding
Продолжительность : 26 м.
Задержка видео : 2 с.
5cd31ce6b79f632b8b031dae2704836872871489Парень с Марса (Сергей Осипьян, комедия, 2011) [DVD5, Не требуется] Парень с Марса (Сергей Осипьян, комедия, 2011) [DVD5, Не требуется] " />

Аплоадер: Админ, дата: 21-09-2011, 14:56, торрент скачан: 359 раз

Понравилась раздача? Посмотрите эти:
  • Джанго освобождённый / Django Unchained (Квентин Тарантино, Драма, Вестерн, ...
  • Линкольн / Lincoln (Стивен Спилберг, драма, военный, биография, история, 20 ...
  • О чём молчат девушки (Карен Оганесян, Комедия, 2013) [DVD5 R5, Не требуется ...
  • Что надо знать о женщине, садясь с ней в машину (документальный, 2013) [WEB ...
  • Ты и я/You and I (Роланд Жоффе, мелодрама, комедия, 2010) [DVD5, Оригинал]
  • Как человек бросал курить (Сергей Андрюшкин, Документальный, 2011) [DVD5, н ...
  • Запрещенный прием / Sucker Punch (Зак Снайдер, Фэнтези, 2011) [BDRemux 108 ...
  • Любовь-морковь 3 (Сергей Гинзбург, Комедия, 2011) [DVD5, Оригинал]
  • Гарри Поттер и Дары смерти: Часть 1 / Harry Potter and the Deathly Hallows: ...
  • Притворись моей женой / Just Go with It (Дэннис Дуган, мелодрама, комедия, ...
  • Балбесы / Olsen Banden pa de bonede gulve (Юрген Лердам , мультфильм, комед ...
  • Человек ниоткуда (Дмитрий Фикс, боевик,триллер, 2010) [DVD R5, Оригинал [ли ...
  • Парень с Марса (Сергей Осипьян,комедия,2011) [DVDRip, Не требуется]
  • Парень с Марса (Сергей Осипьян, комедия, 2011) [DVDRip, Не требуется] by PO ...
  • Огни притона (Александр Гордон, драма, 2011) [DVD5, сжатый, Оригинал]
  • То лето страсти / Un été brûlant (Филипп Гаррель, драма, 2011) [DVD9, Профе ...
  • Смешарики. Начало (Денис Чернов, мультфильм, комедия, приключения, семейный ...
  • Камень (Вячеслав Каминский, Фантастика, триллер, криминал, 2012) [DVD9, Не ...
  • 2016: Конец ночи / Hell (Тим Фельбаум / Tim Fehlbaum, ужасы, фантастика, тр ...
  • Игра на выживание / Gone (Эйтор Далия, триллер, драма, 2012) [DVD5, Професс ...
  • Клятва / The Vow (Майкл Сакси, драма, мелодрама, 2012) [DVD5, Профессиональ ...
  • Экстрасенс / The Awakening (Ник Мерфи, ужасы, триллер, 2011) [DVD9, Професс ...
  • Краски / Старший брат - 2 [2003, Pop, DVD5]
  • Вирус / Ручки [1999, Pop, TVRip]
  • Американский пирог: Все в сборе / American Reunion (Джон Харвитц, Хейден Шл ...
  • Информация
    Посетители, находящиеся в группе Гости, не могут оставлять комментарии к данной публикации.