вход на сайт

Имя пользователя :
Пароль :

Восстановление пароля Регистрация
Ты и я/You and I (Роланд Жоффе, мелодрама, комедия, 2010) [DVD5, Оригинал]
Рейтинг:
(голосов: 1)



[img]{THEME}/images/logopost.png[/img]



Ты и я

Год выпуска: 2010
Страна: США, Россия
Производство: Angels Kiss / Ramco Films
Жанр: мелодрама, комедия

Режиссёр: Роланд Жоффе
В ролях: Антон Ельчин, Миша Бартон, Шантель Ван Сантен, Олеся Судзиловская, Александр Белоногов, Александр Семчев, Юлия Волкова, Лена Катина, Григорий Леваков, Трой МакКаббин

Перевод: Оригинал [Лицензия]
Субтитры: Нет

Описание: Главная героиня фильма — шестнадцатилетняя американка Джейни Соер — недавно переехала в Москву и «влюбилась» в группу Тату. На почве музыкальных пристрастий героиня знакомится в чате с русской сверстницей Ланой Старковой, и они вместе отправляются на концерт.
Но, оказывается, не так-то просто попасть в Москве на стадион. По пути девчонок ожидает масса неожиданностей и опасностей, которые таит ночной город и проверят их дружбу на прочность.



"DVDInfo:" ▼
Title: F
Size: 4.36 Gb ( 4 571 132 KBytes ) - DVD-5
Enabled regions: 1, 2, 3, 4, 5, 6, 7, 8

VTS_01 :
Play Length: 00:00:05
Video: PAL 4:3 (720x576) VBR

VTS_02 :
Play Length: 00:00:18
Video: PAL 4:3 (720x576) VBR
Audio:
Not specified (Dolby AC3, 2 ch)

VTS_03 :
Play Length: 00:01:44
Video: PAL 16:9 (720x576) VBR, Auto Letterboxed
Audio:
English (Dolby AC3, 2 ch)
Subtitles:
Russian

VTS_04 :
Play Length: 01:33:21
Video: PAL 16:9 (720x576) VBR, Auto Letterboxed
Audio:
Russian (Dolby AC3, 6 ch)

VTS_05 :
Play Length: 00:01:16
Video: PAL 16:9 (720x576) VBR, Auto Letterboxed
Audio:
Russian (Dolby AC3, 2 ch)

VTS_06 :
Play Length: 00:02:01
Video: PAL 16:9 (720x576) VBR, Auto Letterboxed
Audio:
Russian (Dolby AC3, 2 ch)
Subtitles:
Russian

VTS_07 :
Play Length: 00:02:00
Video: PAL 16:9 (720x576) VBR, Auto Letterboxed
Audio:
English (Dolby AC3, 2 ch)
Subtitles:
Russian
"MediaInfo:" ▼
Общее
Полное имя : E:Новинки 2011Ty.i.ya.2010.DVD5VIDEO_TSVTS_04_1.VOB
Формат : MPEG-PS
Размер файла : 1024 Мбайт
Продолжительность : 24 м.
Общий поток : 5943 Кбит/сек

Видео
Идентификатор : 224 (0xE0)
Формат : MPEG Video
Версия формата : Version 2
Профиль формата : [email protected]
Параметр BVOP формата : Да
Параметр матрицы формата : По умолчанию
Продолжительность : 24 м.
Вид битрейта : Переменный
Битрейт : 5377 Кбит/сек
Номинальный битрейт : 8000 Кбит/сек
Ширина : 720 пикс.
Высота : 576 пикс.
Соотношение сторон : 4:3
Частота кадров : 25,000 кадр/сек
Стандарт вещания : PAL
Цветовое пространство : YUV
Подвыборка цветности : 4:2:0
Битовая глубина : 8 бит
Тип развёртки : Чересстрочная
Порядок развёртки : Верхнее поле первое
Метод сжатия : С потерями
Бит/(Пиксели*Кадры) : 0.519
Размер потока : 926 Мбайт (90%)

Аудио
Идентификатор : 189 (0xBD)-128 (0x80)
Формат : AC-3
Формат/Информация : Audio Coding 3
Расширение режима : CM (complete main)
Режим смешивания : DVD-Video
Продолжительность : 24 м.
Вид битрейта : Постоянный
Битрейт : 448 Кбит/сек
Канал(ы) : 6 канала(ов)
Расположение каналов : Front: L C R, Side: L R, LFE
Частота : 48,0 КГц
Битовая глубина : 16 бит
Метод сжатия : С потерями
Размер потока : 77,2 Мбайт (8%)
"Скриншоты меню:" ▼


Бонусы: Анонсы фильмов, трейлер

Качество: DVD5
Продолжительность: 01:33:21

Формат: DVD Video
Видео кодек: MPEG2
Аудио кодек: AC3
Формат видео: PAL 16:9 (720x576(0.519)) MPEG Video,25,000 кадр/сек, 5377 Кбит/сек
Формат аудио: Russian (Dolby AC3, 6 ch) 448 Кбит/сек, 48,0 КГц


93b2c5af432f9620355cb7a9c39996d56a8eb09aТы и я/You and I (Роланд Жоффе, мелодрама, комедия, 2010) [DVD5, Оригинал] Ты и я/You and I (Роланд Жоффе, мелодрама, комедия, 2010) [DVD5, Оригинал] " />

Аплоадер: Админ, дата: 8-04-2011, 06:30, торрент скачан: 359 раз

Понравилась раздача? Посмотрите эти:
  • G.I. Joe: Бросок кобры 2 / G.I. Joe: Retaliation (Джон М. Чу, фантастика, б ...
  • Даю год / I Give It a Year (Дэн Мазер, мелодрама, комедия, 2013) [DVD9 R5, ...
  • О чём молчат девушки (Карен Оганесян, Комедия, 2013) [DVD5 R5, Не требуется ...
  • Любовь на кончиках пальцев / Populaire (Режис Ройнсар, Мелодрама, комедия, ...
  • Аполлон 18 / Apollo 18 (Гонсало Лопес-Гальего, ужасы, фантастика, 2011) [DV ...
  • Фантом / The Darkest Hour ( Крис Горак, фантастика, триллер, 2011) [DVD5, п ...
  • Мадагаскар 3 / Madagascar 3: Europes Most Wanted (Эрик Дарнелл, Том МакГрат ...
  • Мадагаскар 3 / Madagascar 3: Europes Most Wanted (Эрик Дарнелл, Том МакГрат ...
  • Новогодний брак (Армен Адилханян, Мелодрама, комедия, 2012) [DVD5, Не требу ...
  • Забери мою душу 2D / My Soul to Take 2D (Уэс Крэйвен / Wes Craven, ужасы, т ...
  • Ты и я (Роланд Жоффе, мелодрама, комедия, 2010) [DVDRip, Оригинал]
  • Беременный (Сарик Андреасян, Комедия, 2011) [DVD9, Оригинал]
  • Очень опасная штучка / One for the Money (Джули Энн Робинсон, комедия, 2012 ...
  • Ева: Искусственный разум / Eva (Кике Маильо, фантастика, фэнтези, драма, 20 ...
  • Экстрасенс / The Awakening (Ник Мерфи, ужасы, триллер, 2011) [DVD9, Професс ...
  • Фантом / The Darkest Hour ( Крис Горак, фантастика, триллер, 2011) [DVD9, п ...
  • Zолушка (Сергей Иванов, комедия, мелодрама, 2012) [DVD9, Не требуется]
  • «Весёлые» каникулы / Get the Gringo (Адриан Грюнберг, боевик, комедия, 2012 ...
  • Париж-Манхэттен / Paris-Manhattan (Софи Лелуш, мелодрама, комедия, 2012) [D ...
  • Третий лишний / Ted (Сет МакФарлейн, Фэнтези, комедия, 2012) [DVD5, Дубляж, ...
  • Информация
    Посетители, находящиеся в группе Гости, не могут оставлять комментарии к данной публикации.