вход на сайт

Имя пользователя :
Пароль :

Восстановление пароля Регистрация
Человек ниоткуда (Дмитрий Фикс, боевик,триллер, 2010) [DVD R5, Оригинал [лицензия]]
Рейтинг:
(голосов: 1)



[img]{THEME}/images/logopost.png[/img]



Человек ниоткуда

Год выпуска: 2010
Страна: Россия
Производство: Мотор фильм студия
Жанр: Боевик,триллер
Продолжительность: 01:37:37
Перевод: Оригинал [лицензия]


Режиссёр: Дмитрий Фикс
В ролях: Владимир Епифанцев, Александр Борисов, Александр Кузнецов, Кирилл Кяро, Сергей Легостаев, Наталия Лесниковская, Тимур Ефременков


Описание: Капитан отдела внедрения МВД Сергей Кутепов возвращается в Москву после выполнения опасного задания. Дома его ждут не самые приятные новости. Выясняется, что жена Марина изменяет ему. Но это не единственная беда, свалившаяся на Кутепова: при попытке внедрения в банду наркоторговца Кесаря погибает его друг и коллега — офицер Тихонов. Начальство подозревает, что Тихонова выдал кто-то из своих. Сергею поручено внедриться в банду Кесаря и найти «крота». Справится ли он с этой задачей....

IMDB: --
КиноПоиск: 6.227/10 (110 votes)

Бонусы:
1) Смотрите на видео
Скриншоты меню ▼
DVDInfo ▼Title: Мой диск
Size: 3.03 Gb ( 3 175 752 KBytes ) - DVD-5
Enabled regions: 1, 2, 3, 4, 5, 6, 7, 8
VTS_01 :
Play Length: 01:37:37
Video: PAL 4:3 (720x576) VBR
Audio:
English (Dolby AC3, 2 ch)
English (Dolby AC3, 6 ch)
VTS_02 :
Play Length: 00:00:55+00:04:59+00:01:44+00:02:14+00:01:42
Video: PAL 4:3 (720x576) VBR
Audio:
English (Dolby AC3, 2 ch)
Menu Video:
PAL 4:3 (720x576) VBR
Menu Audio:
Not specified (Dolby AC3, 2 ch)
Menu Subtitles:
Not specified
Menu Russian Language Unit :
Root Menu
MediaInfo ▼Общее
Полное имя : F:Новинки 2011Chelovek.Niotkuda.2010.f-s.DVD5VIDEO_TSVTS_01_1.VOB
Формат : MPEG-PS
Размер файла : 1024 Мбайт
Продолжительность : 37 м.
Общий поток : 3869 Кбит/сек
Видео
Идентификатор : 224 (0xE0)
Формат : MPEG Video
Версия формата : Version 2
Профиль формата : [email protected]
Параметр BVOP формата : Да
Параметр матрицы формата : По умолчанию
Параметры GOP формата : M=3, N=12
Продолжительность : 37 м.
Вид битрейта : Переменный
Битрейт : 3152 Кбит/сек
Номинальный битрейт : 9200 Кбит/сек
Ширина : 720 пикс.
Высота : 576 пикс.
Соотношение сторон : 4:3
Частота кадров : 25,000 кадр/сек
Стандарт вещания : PAL
Цветовое пространство : YUV
Подвыборка цветности : 4:2:0
Битовая глубина : 8 бит
Тип развёртки : Прогрессивная
Метод сжатия : С потерями
Бит/(Пиксели*Кадры) : 0.304
Размер потока : 834 Мбайт (81%)
Аудио #1
Идентификатор : 189 (0xBD)-128 (0x80)
Формат : AC-3
Формат/Информация : Audio Coding 3
Расширение режима : CM (complete main)
Режим смешивания : DVD-Video
Продолжительность : 36 м.
Вид битрейта : Постоянный
Битрейт : 192 Кбит/сек
Канал(ы) : 2 канала(ов)
Расположение каналов : Front: L R
Частота : 48,0 КГц
Битовая глубина : 16 бит
Метод сжатия : С потерями
Размер потока : 50,8 Мбайт (5%)
Аудио #2
Идентификатор : 189 (0xBD)-129 (0x81)
Формат : AC-3
Формат/Информация : Audio Coding 3
Расширение режима : CM (complete main)
Режим смешивания : DVD-Video
Продолжительность : 36 м.
Вид битрейта : Постоянный
Битрейт : 448 Кбит/сек
Канал(ы) : 6 канала(ов)
Расположение каналов : Front: L C R, Side: L R, LFE
Частота : 48,0 КГц
Битовая глубина : 16 бит
Метод сжатия : С потерями
Размер потока : 119 Мбайт (12%)
Полноразмерная сканированная обложка

Качество: DVD5
Формат: DVD video
Видео: PAL 4:3 (720x576) VBR
Аудио: #1 русский (Dolby AC3, 6 ch 448 kbps)
Аудио: #2 русский (Dolby AC3, 2 ch 192 kbps)


ffb06afcb5a308ffde507e1d8e5338b67dbe64cbЧеловек ниоткуда (Дмитрий Фикс, боевик,триллер, 2010) [DVD R5, Оригинал [лицензия]] Человек ниоткуда (Дмитрий Фикс, боевик,триллер, 2010) [DVD R5, Оригинал [лицензия]] " />

Аплоадер: Админ, дата: 22-05-2011, 09:43, торрент скачан: 359 раз

Понравилась раздача? Посмотрите эти:
  • Линкольн / Lincoln (Стивен Спилберг, драма, военный, биография, история, 20 ...
  • О чём молчат девушки (Карен Оганесян, Комедия, 2013) [DVD5 R5, Не требуется ...
  • Ты и я/You and I (Роланд Жоффе, мелодрама, комедия, 2010) [DVD5, Оригинал]
  • Человек ниоткуда (Дмитрий Фикс, Боевик, 2010) [SATRip, Оригинал (Русский)]
  • Гарри Поттер и Дары смерти: Часть 1 / Harry Potter and the Deathly Hallows: ...
  • Притворись моей женой / Just Go with It (Дэннис Дуган, мелодрама, комедия, ...
  • Балбесы / Olsen Banden pa de bonede gulve (Юрген Лердам , мультфильм, комед ...
  • Человек ниоткуда (Дмитрий Фикс, боевик, 2010) [DVDRip, Оригинал [Лицензия]] ...
  • Бой с тенью : Последний раунд (Алексей Сидоров) [2011, Россия, боевик, дра ...
  • Высоцкий. Спасибо, что живой (Петр Буслов, драма, биография, 2011) [DVD9, О ...
  • Шпион, выйди вон! / Tinker Tailor Soldier Spy (Томас Альфредсон / Tomas Alf ...
  • То лето страсти / Un été brûlant (Филипп Гаррель, драма, 2011) [DVD9, Профе ...
  • Смешарики. Начало (Денис Чернов, мультфильм, комедия, приключения, семейный ...
  • Камень (Вячеслав Каминский, Фантастика, триллер, криминал, 2012) [DVD9, Не ...
  • 2016: Конец ночи / Hell (Тим Фельбаум / Tim Fehlbaum, ужасы, фантастика, тр ...
  • Ева: Искусственный разум / Eva (Кике Маильо, фантастика, фэнтези, драма, 20 ...
  • Игра на выживание / Gone (Эйтор Далия, триллер, драма, 2012) [DVD5, Професс ...
  • Клятва / The Vow (Майкл Сакси, драма, мелодрама, 2012) [DVD5, Профессиональ ...
  • Экстрасенс / The Awakening (Ник Мерфи, ужасы, триллер, 2011) [DVD9, Професс ...
  • Мужчины в большом городе 2 / Männerherzen... und die ganz ganz große Liebe ...
  • Информация
    Посетители, находящиеся в группе Гости, не могут оставлять комментарии к данной публикации.