вход на сайт

Имя пользователя :
Пароль :

Восстановление пароля Регистрация
МЫ. Верим в любовь / W.E. (Мадонна, драма, мелодрама, 2011) [DVD5, Профессиональный (многоголосый, закадровый)]
Рейтинг:
(голосов: 1)



[img]{THEME}/images/logopost.png[/img]



МЫ. Верим в любовь / W.E.
«Самая красивая история XX века»

Год выпуска: 2011
Страна: Великобритания
Производство: Lip Sync Post, Semtex Films
Жанр: Драма, мелодрама

Режиссёр: Мадонна / Madonna
В ролях: Эбби Корниш, Натали Дормер, Кэти МакГрат, Аннабелль Уоллис, Оскар Айзек, Андреа Райзборо, Джеймс Д’Арси, Ричард Койл, Лоуренс Фокс, Джеймс Фокс

Перевод: Профессиональный (многоголосый закадровый)
Субтитры: Отсутствуют

Описание: Роман короля Великобритании Эдуарда VIII и американки Уоллис Симпсон взбудоражил общественность. На момент знакомства с принцем Эдуардом Симпсон была замужем, а король, если хотел жениться на ней, должен был отречься от престола. Но даже это не помешало их любви.Дата премьеры (мир): 1 сентября 2011
Дата премьеры (РФ): 2 февраля 2012, «Top Film Distribution»
Качество: DVD5
Продолжительность: 01:53:51 час.


Формат: DVD Video
Видео кодек: MPEG2
Аудио кодек: AC3
Видео: PAL 16:9 (720x576) VBR, Auto Pan&Scan
Аудио: 48 kHz, AC3 Dolby Digital, 3/2 (L,C,R,l,r) + LFE ch, 384.00 kbps avg
Скриншоты меню ▼
MediaInfo ▼TextFormat : MPEG-PS
File size : 1 024 MiB
Duration : 25mn 22s
Overall bit rate : 5 643 Kbps

Video
ID : 224 (0xE0)
Format : MPEG Video
Format version : Version 2
Format profile : [email protected]
Format settings, BVOP : Yes
Format settings, Matrix : Custom
Duration : 25mn 22s
Bit rate mode : Variable
Bit rate : 5 147 Kbps
Maximum bit rate : 9 000 Kbps
Width : 720 pixels
Height : 576 pixels
Display aspect ratio : 16:9
Frame rate : 25.000 fps
Standard : PAL
Color space : YUV
Chroma subsampling : 4:2:0
Bit depth : 8 bits
Scan type : Interlaced
Scan order : Top Field First
Compression mode : Lossy
Bits/(Pixel*Frame) : 0.496
Stream size : 934 MiB (91%)

Audio
ID : 189 (0xBD)-128 (0x80)
Format : AC-3
Format/Info : Audio Coding 3
Mode extension : CM (complete main)
Muxing mode : DVD-Video
Duration : 25mn 21s
Bit rate mode : Constant
Bit rate : 384 Kbps
Channel(s) : 6 channels
Channel positions : Front: L C R, Side: L R, LFE
Sampling rate : 48.0 KHz
Bit depth : 16 bits
Compression mode : Lossy
Stream size : 69.7 MiB (7%)

Menu
DVDInfo ▼TextTitle: Bob
Size: 4.37 Gb ( 4 582 576 KBytes ) - DVD-5
Enabled regions: 1, 2, 3, 4, 5, 6, 7, 8

VTS_01 :
Play Length:
Video: PAL 4:3 (720x576) VBR

VTS_02 :
Play Length: 01:53:51
Video: PAL 16:9 (720x576) VBR, Auto Pan&Scan
Audio:
Russian (Dolby AC3, 6 ch)

VTS_03 :
Play Length:
Video: PAL 4:3 (720x576) VBR
Audio:
English (Dolby AC3, 2 ch)





30a29e538b663f20194ba05a1eb3521dd1add128МЫ. Верим в любовь / W.E. (Мадонна, драма, мелодрама, 2011) [DVD5, Профессиональный (многоголосый, закадровый)] МЫ. Верим в любовь / W.E. (Мадонна, драма, мелодрама, 2011) [DVD5, Профессиональный (многоголосый, закадровый)] " />

Аплоадер: Админ, дата: 29-02-2012, 21:35, торрент скачан: 359 раз

Понравилась раздача? Посмотрите эти:
  • Слежка / The Letter (Джей Ананья, Триллер, драма, 2012) [DVD5, Профессионал ...
  • Калейдоскоп любви / 360 (Фернанду Мейреллиш, Драма, мелодрама, 2012) [DVD5, ...
  • МЫ. Верим в любовь / W.E. (Мадонна, Драма, мелодрама, история, 2011) [BDRip ...
  • Любовь на кончиках пальцев / Populaire (Режис Ройнсар, Мелодрама, комедия, ...
  • МЫ. Верим в любовь / W.E. (Мадонна, Драма, 2011) [DVDRip - AVC, Профессиона ...
  • Аполлон 18 / Apollo 18 (Гонсало Лопес-Гальего, ужасы, фантастика, 2011) [DV ...
  • Бункер / La cara oculta (Андрес Баиз, триллер, 2011) [DVD5, Профессиональны ...
  • Дом (Олег Погодин, драма, криминал, 2011) [DVD5, Не требуется [лицензия]]
  • Пеликан / Nicostratos le pelican (Оливье Орле, драма, комедия, 2011) [DVDR5 ...
  • Время / In Time (Эндрю Никкол, фантастика, триллер, криминал, 2011) [DVD5, ...
  • Джейн Эйр / Jane Eyre (Кэри Фукунага, драма, мелодрама, 2011) [DVD5, Профе ...
  • Ёлки 2 (Дмитрий Киселёв, Александр Баранов, Александр Котт, Комедия , 2011) ...
  • МЫ. Верим в любовь/W.E. (Мадонна, драма, мелодрама, 2011) [DVDRip, Професси ...
  • МЫ. Верим в любовь/W.E. (Мадонна, драма, мелодрама, 2011) [DVDRip, Професси ...
  • МЫ. Верим в любовь / W.E. (Мадонна, Драма, 2011) [DVDRip, Профессиональный ...
  • Воин / Warrior (Гэвин О’Коннор, боевик, драма, спорт, 2011) [DVD9, Професс ...
  • Ловушка для невесты / The Decoy Bride (Шери Фольксон, Драма, 2011) [DVD5, П ...
  • Белоснежка: Месть гномов / Mirror Mirror (Тарсем Синх, фэнтези, драма, коме ...
  • Ялта-45 // Эпизоды с 1 по 4 (из 4) (боевик, военный, 2012) [DVD9, Не требуе ...
  • Мстители / The Avengers (Джосс Уидон, фантастика, боевик, приключения, 2012 ...
  • Информация
    Посетители, находящиеся в группе Гости, не могут оставлять комментарии к данной публикации.