вход на сайт

Имя пользователя :
Пароль :

Восстановление пароля Регистрация
Пульс 2 / Pulse 2: Afterlife (Джоэль Сойзон, Драма, Фэнтази, Ужас, Мистика, Триллер, 2008 год) [DVD5, Профессиональный (двухголосый)]
Рейтинг:
(голосов: 1)



[img]{THEME}/images/logopost.png[/img]



Пульс 2 / Pulse 2: Afterlife

Год выпуска: 2008
Страна: США
Производство: Dimension Extream Films
Жанр: Драма, Фэнтази, Ужас, Мистика, Триллер
Продолжительность: 01:28:45 час.
Перевод: Профессиональный (двухголосый)
Субтитры: нет

Режиссёр: Джоэль Сойзон

В ролях: Джеки Арнольд, Джэми Бамбер, Кент Джуд Бернард, Боти Блисс, Доди Браун, Брюс Брайант, Лаура Кайот, Карли Скотт Коллинз, Кип Каммингс



Описание: Мир был изменен навсегда вторжением призраков, они все так же передвигаются по электрическим сетям, при этом убивая все больше и больше людей. Человечество на грани исчезновения, многие города оставлены, и все электронные технологии разрушены. И во всем этом хаoсе разведенные герои пытаются найти свою дочь.

IMDB: рейтинг3.50 (1 041)
КиноПоиск: рейтинг3.140

Качество: DVD5
Формат: DVD-Video
Видео кодек: MPEG2
Аудио кодек: AС3
Видео: NTSC 16:9 (720x480) VBR, Auto Letterboxed
Аудио: Русский (48 kHz, 448.00 kbps, 6 ch)
English (48 kHz, 448.00 kbps, 6 ch)
English (48 kHz, 192.00 kbps, 2 ch)- комментарий

"Скриншоты Меню" ▼

"MediaInfo" ▼
Format : MPEG-PS
File size : 1 024 MiB
Duration : 23mn 28s
Overall bit rate mode : Variable
Overall bit rate : 6 099 Kbps
Video #224
ID : 224 (0xE0)
Format : MPEG Video
Format version : Version 2
Format profile : [email protected]
Format settings, BVOP : Yes
Format settings, Matrix : Custom
Duration : 23mn 28s
Bit rate mode : Variable
Bit rate : 4 890 Kbps
Width : 720 pixels
Height : 480 pixels
Display aspect ratio : 16:9
Frame rate : 23.976 fps
Standard : Component
Color space : YUV
Chroma subsampling : 4:2:0
Bit depth : 8 bits
Scan type : Progressive
Scan order : 2:3 Pulldown
Compression mode : Lossy
Bits/(Pixel*Frame) : 0.590
Stream size : 821 MiB (80%)
Audio #189-128
ID : 189 (0xBD)-128 (0x80)
Format : AC-3
Format/Info : Audio Coding 3
Mode extension : CM (complete main)
Muxing mode : DVD-Video
Duration : 23mn 28s
Bit rate mode : Constant
Bit rate : 448 Kbps
Channel(s) : 6 channels
Channel positions : Front: L C R, Side: L R, LFE
Sampling rate : 48.0 KHz
Bit depth : 16 bits
Compression mode : Lossy
Delay relative to video : -266ms
Stream size : 75.2 MiB (7%)
Audio #189-129
&nbs
696844090cc6c67f3ef8ba4ed7b26c0a723c30b8Пульс 2 / Pulse 2: Afterlife (Джоэль Сойзон, Драма, Фэнтази, Ужас, Мистика, Триллер, 2008 год) [DVD5, Профессиональный (двухголосый)] Пульс 2 / Pulse 2: Afterlife (Джоэль Сойзон, Драма, Фэнтази, Ужас, Мистика, Триллер, 2008 год) [DVD5, Профессиональный (двухголосый)] " />

Аплоадер: Админ, дата: 22-01-2012, 10:38, торрент скачан: 359 раз

Понравилась раздача? Посмотрите эти:
  • Достучаться До Небес / ГУГЛ [2013, Pop, Master]
  • Журнал Лиги Чемпионов 2013-14 / НТВ+ [31.08.2013, 720p, x264, RU, HDTVRip]
  • Мужество / Wymyk (Грег Зглински, драма, 2011) [DVDRip, Любительский (одного ...
  • Слабые проблески / Rushlights (Энтони Стац, Триллер, Мелодрама, Криминал, 2 ...
  • Слепой поворот / Blind Turn (Роберт Орр, Триллер, драма, детектив, 2012) [W ...
  • [Трилогия] Пульс 1.2.3 / Pulse 1.2.3 Trilogy (Джоэл Сойсон) [2006*2008, Три ...
  • Джефф, живущий дома / Jeff, Who Lives at Home (Джей Дюпласс, Марк Дюпласс, ...
  • Джефф, живущий дома / Jeff, Who Lives at Home (Джей Дюпласс, Марк Дюпласс, ...
  • Неуправляемый / Unstoppable(Тони Скотт, боевик, триллер, драма, 2010) [DVD5 ...
  • МЫ. Верим в любовь / W.E. (Мадонна, драма, мелодрама, 2011) [DVD5, Професси ...
  • Пастырь / Priest (Скотт Чарльз Стюарт, ужасы, фантастика, боевик, триллер, ...
  • Дом (Олег Погодин, драма, криминал, 2011) [DVD5, Не требуется [лицензия]]
  • Пеликан / Nicostratos le pelican (Оливье Орле, драма, комедия, 2011) [DVDR5 ...
  • Время / In Time (Эндрю Никкол, фантастика, триллер, криминал, 2011) [DVD5, ...
  • Белоснежка: Месть гномов / Mirror Mirror (Тарсем Синх, фэнтези, драма, коме ...
  • Мстители / The Avengers (Джосс Уидон, фантастика, боевик, приключения, 2012 ...
  • Белоснежка и охотник / Snow White and the Huntsman (Руперт Сандерс / Rupert ...
  • Прометей / Prometheus (Ридли Скотт, фантастика, триллер, приключения, США, ...
  • Ничего, кроме правды / Nothing But the Truth (Род Лури, триллер, драма, 200 ...
  • Namie Amuro / Love Story [2011, JPop, HDTVRip]
  • Информация
    Посетители, находящиеся в группе Гости, не могут оставлять комментарии к данной публикации.